  0
SECTION
  2
HEADER
  9
$ACADVER
  1
AC1032
  9
$ACADMAINTVER
 90
      204
  9
$DWGCODEPAGE
  3
ANSI_1252
  9
$LASTSAVEDBY
  1
kentp
  9
$REQUIREDVERSIONS
160
                 0
  9
$INSBASE
 10
0.0
 20
0.0
 30
0.0
  9
$EXTMIN
 10
0.375
 20
0.375
 30
0.0
  9
$EXTMAX
 10
109.675907924647
 20
69.86732034386671
 30
0.0
  9
$LIMMIN
 10
0.0
 20
0.0
  9
$LIMMAX
 10
12.0
 20
9.0
  9
$ORTHOMODE
 70
     0
  9
$REGENMODE
 70
     1
  9
$FILLMODE
 70
     1
  9
$QTEXTMODE
 70
     0
  9
$MIRRTEXT
 70
     0
  9
$LTSCALE
 40
1.0
  9
$ATTMODE
 70
     1
  9
$TEXTSIZE
 40
0.125
  9
$TRACEWID
 40
0.05
  9
$TEXTSTYLE
  7
Standard
  9
$CLAYER
  8
0
  9
$CELTYPE
  6
ByLayer
  9
$CECOLOR
 62
   256
  9
$CELTSCALE
 40
1.0
  9
$DISPSILH
 70
     0
  9
$DIMSCALE
 40
1.0
  9
$DIMASZ
 40
0.25
  9
$DIMEXO
 40
0.125
  9
$DIMDLI
 40
0.375
  9
$DIMRND
 40
0.0
  9
$DIMDLE
 40
0.0
  9
$DIMEXE
 40
0.125
  9
$DIMTP
 40
0.0
  9
$DIMTM
 40
0.0
  9
$DIMTXT
 40
0.25
  9
$DIMCEN
 40
-0.0625
  9
$DIMTSZ
 40
0.0
  9
$DIMTOL
 70
     0
  9
$DIMLIM
 70
     0
  9
$DIMTIH
 70
     0
  9
$DIMTOH
 70
     0
  9
$DIMSE1
 70
     0
  9
$DIMSE2
 70
     0
  9
$DIMTAD
 70
     1
  9
$DIMZIN
 70
     0
  9
$DIMBLK
  1

  9
$DIMASO
 70
     1
  9
$DIMSHO
 70
     1
  9
$DIMPOST
  1

  9
$DIMAPOST
  1
mm
  9
$DIMALT
 70
     0
  9
$DIMALTD
 70
     3
  9
$DIMALTF
 40
25.4
  9
$DIMLFAC
 40
1.0
  9
$DIMTOFL
 70
     0
  9
$DIMTVP
 40
0.0
  9
$DIMTIX
 70
     0
  9
$DIMSOXD
 70
     0
  9
$DIMSAH
 70
     0
  9
$DIMBLK1
  1

  9
$DIMBLK2
  1

  9
$DIMSTYLE
  2
STANDARD
  9
$DIMCLRD
 70
   256
  9
$DIMCLRE
 70
   256
  9
$DIMCLRT
 70
   256
  9
$DIMTFAC
 40
1.0
  9
$DIMGAP
 40
0.094
  9
$DIMJUST
 70
     0
  9
$DIMSD1
 70
     0
  9
$DIMSD2
 70
     0
  9
$DIMTOLJ
 70
     1
  9
$DIMTZIN
 70
     3
  9
$DIMALTZ
 70
     3
  9
$DIMALTTZ
 70
     3
  9
$DIMUPT
 70
     0
  9
$DIMDEC
 70
     4
  9
$DIMTDEC
 70
     4
  9
$DIMALTU
 70
     5
  9
$DIMALTTD
 70
     3
  9
$DIMTXSTY
  7
Standard
  9
$DIMAUNIT
 70
     0
  9
$DIMADEC
 70
     2
  9
$DIMALTRND
 40
0.0
  9
$DIMAZIN
 70
     2
  9
$DIMDSEP
 70
    46
  9
$DIMATFIT
 70
     0
  9
$DIMFRAC
 70
     2
  9
$DIMLDRBLK
  1

  9
$DIMLUNIT
 70
     4
  9
$DIMLWD
 70
    -1
  9
$DIMLWE
 70
    -1
  9
$DIMTMOVE
 70
     0
  9
$DIMFXL
 40
1.0
  9
$DIMFXLON
 70
     0
  9
$DIMJOGANG
 40
0.7853981633974483
  9
$DIMTFILL
 70
     0
  9
$DIMTFILLCLR
 70
     0
  9
$DIMARCSYM
 70
     0
  9
$DIMLTYPE
  6
ByLayer
  9
$DIMLTEX1
  6
ByLayer
  9
$DIMLTEX2
  6
ByLayer
  9
$DIMTXTDIRECTION
 70
     0
  9
$LUNITS
 70
     2
  9
$LUPREC
 70
     5
  9
$SKETCHINC
 40
0.1
  9
$FILLETRAD
 40
0.0
  9
$AUNITS
 70
     0
  9
$AUPREC
 70
     0
  9
$MENU
  1
.
  9
$ELEVATION
 40
0.0
  9
$PELEVATION
 40
0.0
  9
$THICKNESS
 40
0.0
  9
$LIMCHECK
 70
     0
  9
$CHAMFERA
 40
0.0
  9
$CHAMFERB
 40
0.0
  9
$CHAMFERC
 40
0.0
  9
$CHAMFERD
 40
0.0
  9
$SKPOLY
 70
     0
  9
$TDCREATE
 40
2456003.310486111
  9
$TDUCREATE
 40
2456003.477156991
  9
$TDUPDATE
 40
2460278.320543982
  9
$TDUUPDATE
 40
2460278.528877315
  9
$TDINDWG
 40
0.9364461458
  9
$TDUSRTIMER
 40
0.9364461458
  9
$USRTIMER
 70
     1
  9
$ANGBASE
 50
0.0
  9
$ANGDIR
 70
     0
  9
$PDMODE
 70
     0
  9
$PDSIZE
 40
0.0
  9
$PLINEWID
 40
0.0
  9
$SPLFRAME
 70
     0
  9
$SPLINETYPE
 70
     6
  9
$SPLINESEGS
 70
     8
  9
$HANDSEED
  5
116D2
  9
$SURFTAB1
 70
     6
  9
$SURFTAB2
 70
     6
  9
$SURFTYPE
 70
     6
  9
$SURFU
 70
     6
  9
$SURFV
 70
     6
  9
$UCSBASE
  2

  9
$UCSNAME
  2

  9
$UCSORG
 10
0.0
 20
0.0
 30
0.0
  9
$UCSXDIR
 10
1.0
 20
0.0
 30
0.0
  9
$UCSYDIR
 10
0.0
 20
1.0
 30
0.0
  9
$UCSORTHOREF
  2

  9
$UCSORTHOVIEW
 70
     0
  9
$UCSORGTOP
 10
0.0
 20
0.0
 30
0.0
  9
$UCSORGBOTTOM
 10
0.0
 20
0.0
 30
0.0
  9
$UCSORGLEFT
 10
0.0
 20
0.0
 30
0.0
  9
$UCSORGRIGHT
 10
0.0
 20
0.0
 30
0.0
  9
$UCSORGFRONT
 10
0.0
 20
0.0
 30
0.0
  9
$UCSORGBACK
 10
0.0
 20
0.0
 30
0.0
  9
$PUCSBASE
  2

  9
$PUCSNAME
  2

  9
$PUCSORG
 10
0.0
 20
0.0
 30
0.0
  9
$PUCSXDIR
 10
1.0
 20
0.0
 30
0.0
  9
$PUCSYDIR
 10
0.0
 20
1.0
 30
0.0
  9
$PUCSORTHOREF
  2

  9
$PUCSORTHOVIEW
 70
     0
  9
$PUCSORGTOP
 10
0.0
 20
0.0
 30
0.0
  9
$PUCSORGBOTTOM
 10
0.0
 20
0.0
 30
0.0
  9
$PUCSORGLEFT
 10
0.0
 20
0.0
 30
0.0
  9
$PUCSORGRIGHT
 10
0.0
 20
0.0
 30
0.0
  9
$PUCSORGFRONT
 10
0.0
 20
0.0
 30
0.0
  9
$PUCSORGBACK
 10
0.0
 20
0.0
 30
0.0
  9
$USERI1
 70
     0
  9
$USERI2
 70
     0
  9
$USERI3
 70
     0
  9
$USERI4
 70
     0
  9
$USERI5
 70
     0
  9
$USERR1
 40
0.0
  9
$USERR2
 40
0.0
  9
$USERR3
 40
0.0
  9
$USERR4
 40
0.0
  9
$USERR5
 40
0.0
  9
$WORLDVIEW
 70
     1
  9
$SHADEDGE
 70
     3
  9
$SHADEDIF
 70
    70
  9
$TILEMODE
 70
     1
  9
$MAXACTVP
 70
    64
  9
$PINSBASE
 10
0.0
 20
0.0
 30
0.0
  9
$PLIMCHECK
 70
     0
  9
$PEXTMIN
 10
1.000000000000000E+20
 20
1.000000000000000E+20
 30
1.000000000000000E+20
  9
$PEXTMAX
 10
-1.000000000000000E+20
 20
-1.000000000000000E+20
 30
-1.000000000000000E+20
  9
$PLIMMIN
 10
0.0
 20
0.0
  9
$PLIMMAX
 10
12.0
 20
9.0
  9
$UNITMODE
 70
     0
  9
$VISRETAIN
 70
     1
  9
$PLINEGEN
 70
     0
  9
$PSLTSCALE
 70
     1
  9
$TREEDEPTH
 70
  3020
  9
$CMLSTYLE
  2
Standard
  9
$CMLJUST
 70
     0
  9
$CMLSCALE
 40
1.0
  9
$PROXYGRAPHICS
 70
     1
  9
$MEASUREMENT
 70
     0
  9
$CELWEIGHT
370
    -1
  9
$ENDCAPS
280
     0
  9
$JOINSTYLE
280
     0
  9
$LWDISPLAY
290
     0
  9
$INSUNITS
 70
     1
  9
$HYPERLINKBASE
  1

  9
$STYLESHEET
  1
monochrome2.ctb
  9
$XEDIT
290
     1
  9
$CEPSNTYPE
380
     0
  9
$PSTYLEMODE
290
     1
  9
$FINGERPRINTGUID
  2
{27C8F5D7-350D-4F90-9642-51717A561ABA}
  9
$VERSIONGUID
  2
{FA8CDD12-A65D-8F4B-8F6D-F03D8812E675}
  9
$EXTNAMES
290
     1
  9
$PSVPSCALE
 40
0.0
  9
$OLESTARTUP
290
     0
  9
$SORTENTS
280
   127
  9
$INDEXCTL
280
     0
  9
$HIDETEXT
280
     1
  9
$XCLIPFRAME
280
     2
  9
$HALOGAP
280
     0
  9
$OBSCOLOR
 70
   257
  9
$OBSLTYPE
280
     0
  9
$INTERSECTIONDISPLAY
280
     0
  9
$INTERSECTIONCOLOR
 70
   257
  9
$DIMASSOC
280
     2
  9
$PROJECTNAME
  1

  9
$CAMERADISPLAY
290
     0
  9
$LENSLENGTH
 40
50.0
  9
$CAMERAHEIGHT
 40
0.0
  9
$STEPSPERSEC
 40
2.0
  9
$STEPSIZE
 40
6.0
  9
$3DDWFPREC
 40
2.0
  9
$PSOLWIDTH
 40
0.25
  9
$PSOLHEIGHT
 40
4.0
  9
$LOFTANG1
 40
1.570796326794896
  9
$LOFTANG2
 40
1.570796326794896
  9
$LOFTMAG1
 40
0.0
  9
$LOFTMAG2
 40
0.0
  9
$LOFTPARAM
 70
     7
  9
$LOFTNORMALS
280
     1
  9
$LATITUDE
 40
37.795
  9
$LONGITUDE
 40
-122.394
  9
$NORTHDIRECTION
 40
0.0
  9
$TIMEZONE
 70
 -8000
  9
$LIGHTGLYPHDISPLAY
280
     1
  9
$TILEMODELIGHTSYNCH
280
     1
  9
$CMATERIAL
347
11
  9
$SOLIDHIST
280
     0
  9
$SHOWHIST
280
     1
  9
$DWFFRAME
280
     2
  9
$DGNFRAME
280
     0
  9
$REALWORLDSCALE
290
     1
  9
$INTERFERECOLOR
 62
     1
  9
$INTERFEREOBJVS
345
33
  9
$INTERFEREVPVS
346
30
  9
$CSHADOW
280
     0
  9
$SHADOWPLANELOCATION
 40
0.0
  0
ENDSEC
  0
SECTION
  2
CLASSES
  0
CLASS
  1
ACDBDICTIONARYWDFLT
  2
AcDbDictionaryWithDefault
  3
ObjectDBX Classes
 90
        0
 91
        1
280
     0
281
     0
  0
CLASS
  1
MATERIAL
  2
AcDbMaterial
  3
ObjectDBX Classes
 90
     1153
 91
        3
280
     0
281
     0
  0
CLASS
  1
VISUALSTYLE
  2
AcDbVisualStyle
  3
ObjectDBX Classes
 90
     4095
 91
       26
280
     0
281
     0
  0
CLASS
  1
SCALE
  2
AcDbScale
  3
ObjectDBX Classes
 90
     1153
 91
       17
280
     0
281
     0
  0
CLASS
  1
TABLESTYLE
  2
AcDbTableStyle
  3
ObjectDBX Classes
 90
     4095
 91
        1
280
     0
281
     0
  0
CLASS
  1
MLEADERSTYLE
  2
AcDbMLeaderStyle
  3
ACDB_MLEADERSTYLE_CLASS
 90
     4095
 91
        1
280
     0
281
     0
  0
CLASS
  1
SORTENTSTABLE
  2
AcDbSortentsTable
  3
ObjectDBX Classes
 90
        0
 91
        5
280
     0
281
     0
  0
CLASS
  1
DIMASSOC
  2
AcDbDimAssoc
  3
"AcDbDimAssoc|Product Desc:     AcDim ARX App For Dimension|Company:          Autodesk, Inc.|WEB Address:      www.autodesk.com"
 90
        0
 91
        1
280
     0
281
     0
  0
CLASS
  1
ACDB_MTEXTOBJECTCONTEXTDATA_CLASS
  2
AcDbMTextObjectContextData
  3
ObjectDBX Classes
 90
     1153
 91
        0
280
     0
281
     0
  0
CLASS
  1
CELLSTYLEMAP
  2
AcDbCellStyleMap
  3
ObjectDBX Classes
 90
     1152
 91
        1
280
     0
281
     0
  0
CLASS
  1
DICTIONARYVAR
  2
AcDbDictionaryVar
  3
ObjectDBX Classes
 90
        0
 91
       13
280
     0
281
     0
  0
CLASS
  1
BREAKDATA
  2
AcDbBreakData
  3
ObjectDBX Classes
 90
     1024
 91
        0
280
     0
281
     0
  0
CLASS
  1
EXACXREFPANELOBJECT
  2
ExAcXREFPanelObject
  3
EXAC_ESW
 90
     1025
 91
        1
280
     0
281
     0
  0
CLASS
  1
NPOCOLLECTION
  2
AcDbImpNonPersistentObjectsCollection
  3
ObjectDBX Classes
 90
     1153
 91
        1
280
     0
281
     0
  0
CLASS
  1
ACAD_EVALUATION_GRAPH
  2
AcDbEvalGraph
  3
ObjectDBX Classes
 90
     1153
 91
        1
280
     0
281
     0
  0
CLASS
  1
ACAECUSTOBJ
  2
AcAeEditorObj
  3
AcAeEditorObj
 90
     1024
 91
        1
280
     0
281
     0
  0
CLASS
  1
ACDB_DYNAMICBLOCKPURGEPREVENTER_VERSION
  2
AcDbDynamicBlockPurgePreventer
  3
ObjectDBX Classes
 90
     1153
 91
        1
280
     0
281
     0
  0
CLASS
  1
MULTILEADER
  2
AcDbMLeader
  3
ACDB_MLEADER_CLASS
 90
     1025
 91
        1
280
     0
281
     1
  0
CLASS
  1
ACDBSECTIONVIEWSTYLE
  2
AcDbSectionViewStyle
  3
ObjectDBX Classes
 90
     1025
 91
        1
280
     0
281
     0
  0
CLASS
  1
ACDBDETAILVIEWSTYLE
  2
AcDbDetailViewStyle
  3
ObjectDBX Classes
 90
     1025
 91
        1
280
     0
281
     0
  0
ENDSEC
  0
SECTION
  2
TABLES
  0
TABLE
  2
VPORT
  5
8
102
{ACAD_XDICTIONARY
360
2324
102
}
330
0
100
AcDbSymbolTable
 70
     1
  0
VPORT
  5
57
330
8
100
AcDbSymbolTableRecord
100
AcDbViewportTableRecord
  2
*Active
 70
     0
 10
0.0
 20
0.0
 11
1.0
 21
1.0
 12
55.02706530705914
 22
35.12076227995429
 13
0.0
 23
0.0
 14
0.5
 24
0.5
 15
0.5
 25
0.5
 16
0.0
 26
0.0
 36
1.0
 17
0.0
 27
0.0
 37
0.0
 40
78.98962828679586
 41
1.993842364532019
 42
50.0
 43
0.0
 44
0.0
 50
0.0
 51
0.0
 71
     0
 72
  1000
 73
     1
 74
     3
 75
     0
 76
     0
 77
     0
 78
     0
281
     0
 65
     1
110
0.0
120
0.0
130
0.0
111
1.0
121
0.0
131
0.0
112
0.0
122
1.0
132
0.0
 79
     0
146
0.0
348
2F
 60
     3
 61
     5
292
     1
282
     1
141
0.0
142
0.0
 63
   250
421
  3355443
1001
ACAD_NAV_VCDISPLAY
1070
     0
  0
ENDTAB
  0
TABLE
  2
LTYPE
  5
5
330
0
100
AcDbSymbolTable
 70
     1
  0
LTYPE
  5
5B
330
5
100
AcDbSymbolTableRecord
100
AcDbLinetypeTableRecord
  2
ByBlock
 70
     0
  3

 72
    65
 73
     0
 40
0.0
  0
LTYPE
  5
5C
330
5
100
AcDbSymbolTableRecord
100
AcDbLinetypeTableRecord
  2
ByLayer
 70
     0
  3

 72
    65
 73
     0
 40
0.0
  0
LTYPE
  5
5D
330
5
100
AcDbSymbolTableRecord
100
AcDbLinetypeTableRecord
  2
Continuous
 70
     0
  3
Solid line
 72
    65
 73
     0
 40
0.0
  0
ENDTAB
  0
TABLE
  2
LAYER
  5
2
102
{ACAD_XDICTIONARY
360
677
102
}
330
0
100
AcDbSymbolTable
 70
     7
  0
LAYER
  5
54
330
2
100
AcDbSymbolTableRecord
100
AcDbLayerTableRecord
  2
0
 70
     0
 62
     4
  6
Continuous
370
    -3
390
F
347
21
348
0
  0
LAYER
  5
66B
330
2
100
AcDbSymbolTableRecord
100
AcDbLayerTableRecord
  2
DEFPOINTS
 70
     1
 62
   251
  6
Continuous
290
     0
370
    -3
390
F
347
21
348
0
  0
LAYER
  5
B0A
102
{ACAD_XDICTIONARY
360
B0B
102
}
330
2
100
AcDbSymbolTableRecord
100
AcDbLayerTableRecord
  2
TEXT
 70
     0
 62
     3
  6
Continuous
370
    -3
390
F
347
21
348
0
  0
LAYER
  5
5701
330
2
100
AcDbSymbolTableRecord
100
AcDbLayerTableRecord
  2
FORMAT
 70
     0
 62
     7
  6
Continuous
370
    -3
390
F
347
21
348
0
1001
AcAecLayerStandard
1000

1000

1001
AcCmTransparency
1071
        0
  0
LAYER
  5
FF16
102
{ACAD_XDICTIONARY
360
FF17
102
}
330
2
100
AcDbSymbolTableRecord
100
AcDbLayerTableRecord
  2
DIME
 70
     0
 62
     2
  6
Continuous
370
    -3
390
F
347
21
348
0
  0
LAYER
  5
FF1A
330
2
100
AcDbSymbolTableRecord
100
AcDbLayerTableRecord
  2
INSERTION_PT
 70
     0
 62
     1
  6
Continuous
290
     0
370
    -3
390
F
347
21
348
0
1001
AcAecLayerStandard
1000

1000

1001
AcCmTransparency
1071
        0
  0
LAYER
  5
11232
330
2
100
AcDbSymbolTableRecord
100
AcDbLayerTableRecord
  2
Kawneer Logo-English
 70
     0
 62
     7
  6
Continuous
370
    -3
390
F
347
21
348
0
1001
AcAecLayerStandard
1000

1000

1001
AcCmTransparency
1071
        0
  0
ENDTAB
  0
TABLE
  2
STYLE
  5
3
330
0
100
AcDbSymbolTable
 70
     1
  0
STYLE
  5
55
330
3
100
AcDbSymbolTableRecord
100
AcDbTextStyleTableRecord
  2
Standard
 70
     0
 40
0.0
 41
1.0
 50
0.0
 71
     0
 42
0.125
  3
arial.ttf
  4

1001
ACAD
1000
Arial
1071
       34
  0
ENDTAB
  0
TABLE
  2
VIEW
  5
6
330
0
100
AcDbSymbolTable
 70
     0
  0
ENDTAB
  0
TABLE
  2
UCS
  5
7
330
0
100
AcDbSymbolTable
 70
     0
  0
ENDTAB
  0
TABLE
  2
APPID
  5
9
330
0
100
AcDbSymbolTable
 70
    16
  0
APPID
  5
56
330
9
100
AcDbSymbolTableRecord
100
AcDbRegAppTableRecord
  2
ACAD
 70
     0
  0
APPID
  5
76
330
9
100
AcDbSymbolTableRecord
100
AcDbRegAppTableRecord
  2
ACAD_NAV_VCDISPLAY
 70
     0
  0
APPID
  5
672
330
9
100
AcDbSymbolTableRecord
100
AcDbRegAppTableRecord
  2
ACAD_DSTYLE_DIMJAG
 70
     0
  0
APPID
  5
673
330
9
100
AcDbSymbolTableRecord
100
AcDbRegAppTableRecord
  2
ACAD_DSTYLE_DIMTALN
 70
     0
  0
APPID
  5
674
330
9
100
AcDbSymbolTableRecord
100
AcDbRegAppTableRecord
  2
ACAD_PSEXT
 70
     0
  0
APPID
  5
B16
330
9
100
AcDbSymbolTableRecord
100
AcDbRegAppTableRecord
  2
AcAecLayerStandard
 70
     0
  0
APPID
  5
B18
330
9
100
AcDbSymbolTableRecord
100
AcDbRegAppTableRecord
  2
AcCmTransparency
 70
     0
  0
APPID
  5
5E4A
330
9
100
AcDbSymbolTableRecord
100
AcDbRegAppTableRecord
  2
ACAD_DSTYLE_DIMBREAK
 70
     0
  0
APPID
  5
11561
330
9
100
AcDbSymbolTableRecord
100
AcDbRegAppTableRecord
  2
ACAD_MLEADERVER
 70
     0
  0
APPID
  5
11569
330
9
100
AcDbSymbolTableRecord
100
AcDbRegAppTableRecord
  2
ACAD_DSTYLE_DIM_LINETYPE
 70
     0
  0
APPID
  5
1156A
330
9
100
AcDbSymbolTableRecord
100
AcDbRegAppTableRecord
  2
ACAD_DSTYLE_DIM_EXT1_LINETYPE
 70
     0
  0
APPID
  5
1156B
330
9
100
AcDbSymbolTableRecord
100
AcDbRegAppTableRecord
  2
ACAD_DSTYLE_DIM_EXT2_LINETYPE
 70
     0
  0
APPID
  5
11658
330
9
100
AcDbSymbolTableRecord
100
AcDbRegAppTableRecord
  2
ACAD_EXEMPT_FROM_CAD_STANDARDS
 70
     0
  0
APPID
  5
116CA
330
9
100
AcDbSymbolTableRecord
100
AcDbRegAppTableRecord
  2
ACAUTHENVIRON
 70
     0
  0
APPID
  5
116CD
330
9
100
AcDbSymbolTableRecord
100
AcDbRegAppTableRecord
  2
AcDbDynamicBlockTrueName
 70
     0
  0
APPID
  5
116CE
330
9
100
AcDbSymbolTableRecord
100
AcDbRegAppTableRecord
  2
AcDbDynamicBlockGUID
 70
     0
  0
ENDTAB
  0
TABLE
  2
DIMSTYLE
  5
A
330
0
100
AcDbSymbolTable
 70
     3
100
AcDbDimStyleTable
 71
     1
340
5E4B
  0
DIMSTYLE
105
5E4B
330
A
100
AcDbSymbolTableRecord
100
AcDbDimStyleTableRecord
  2
STANDARD
 70
     0
  4
mm
 41
0.25
 42
0.125
 43
0.375
 44
0.125
 73
     0
 74
     0
 77
     1
 79
     2
140
0.25
141
-0.0625
147
0.094
171
     3
176
   256
177
   256
178
   256
179
     2
273
     5
274
     3
276
     2
277
     4
284
     3
285
     3
286
     3
289
     0
340
55
345
5C
346
5C
347
5C
371
    -1
372
    -1
1001
ACAD_DSTYLE_DIMBREAK
1070
   391
1040
0.125
1001
ACAD_DSTYLE_DIMJAG
1070
   388
1040
1.5
1001
ACAD_DSTYLE_DIMTALN
1070
   392
1070
     0
  0
DIMSTYLE
105
FF1B
102
{ACAD_REACTORS
330
10018
330
10019
330
1001A
330
10003
330
10004
330
10005
330
10286
330
10287
330
10288
330
10289
330
1028A
330
1028C
330
1059B
330
1059C
330
1059E
330
1059F
330
105A0
330
105A2
330
10AA3
330
10AA4
330
10AA6
330
10CAD
330
10D2C
102
}
330
A
100
AcDbSymbolTableRecord
100
AcDbDimStyleTableRecord
  2
EXT_ON-OFF
 70
     0
  3
"
  4
mm
 40
2.0
 41
0.125
 42
0.1875
 43
0.1875
 44
0.09
 73
     0
 74
     0
 76
     1
 77
     3
 78
     3
140
0.125
141
0.0
147
0.05
171
     3
179
     2
271
     5
272
     5
273
     5
274
     3
276
     2
277
     5
284
     3
285
     3
286
     3
289
     0
340
55
  0
DIMSTYLE
105
FF1C
102
{ACAD_REACTORS
330
1001D
330
FFFA
330
10006
330
10009
330
1027D
330
1028B
330
1028F
330
10291
330
1059D
330
105A1
330
10AA5
330
10CAE
102
}
330
A
100
AcDbSymbolTableRecord
100
AcDbDimStyleTableRecord
  2
EXT_ON-ON
 70
     0
  3
"
  4
mm
 40
2.0
 41
0.125
 42
0.1875
 43
0.1875
 44
0.09
 73
     0
 74
     0
 77
     3
 78
     3
140
0.125
141
0.0
147
0.05
171
     3
179
     2
271
     5
272
     5
273
     5
274
     3
276
     2
277
     5
284
     3
285
     3
286
     3
289
     0
340
55
1001
ACAD_DSTYLE_DIMBREAK
1070
   391
1040
0.125
1001
ACAD_DSTYLE_DIMJAG
1070
   388
1040
1.5
1001
ACAD_DSTYLE_DIMTALN
1070
   392
1070
     0
  0
ENDTAB
  0
TABLE
  2
BLOCK_RECORD
  5
1
330
0
100
AcDbSymbolTable
 70
    41
  0
BLOCK_RECORD
  5
6C
102
{ACAD_XDICTIONARY
360
1344
102
}
330
1
100
AcDbSymbolTableRecord
100
AcDbBlockTableRecord
  2
*Model_Space
340
6F
 70
     0
280
     1
281
     0
  0
BLOCK_RECORD
  5
68
330
1
100
AcDbSymbolTableRecord
100
AcDbBlockTableRecord
  2
*Paper_Space
340
6B
 70
     0
280
     1
281
     0
  0
BLOCK_RECORD
  5
70
330
1
100
AcDbSymbolTableRecord
100
AcDbBlockTableRecord
  2
*Paper_Space0
340
73
 70
     0
280
     1
281
     0
  0
BLOCK_RECORD
  5
FF00
102
{ACAD_XDICTIONARY
360
FF01
102
}
330
1
100
AcDbSymbolTableRecord
100
AcDbBlockTableRecord
  2
B601CG010
340
0
102
{BLKREFS
331
1029D
331
1029F
331
1001B
331
1001C
331
10D2A
331
10CAB
331
10570
331
1057B
331
10A86
331
10A91
102
}
 70
     0
280
     1
281
     0
  0
BLOCK_RECORD
  5
10022
330
1
100
AcDbSymbolTableRecord
100
AcDbBlockTableRecord
  2
*D2
340
0
 70
     0
280
     1
281
     0
  0
BLOCK_RECORD
  5
1002D
330
1
100
AcDbSymbolTableRecord
100
AcDbBlockTableRecord
  2
*D3
340
0
 70
     0
280
     1
281
     0
  0
BLOCK_RECORD
  5
10038
330
1
100
AcDbSymbolTableRecord
100
AcDbBlockTableRecord
  2
*D4
340
0
 70
     0
280
     1
281
     0
  0
BLOCK_RECORD
  5
10043
330
1
100
AcDbSymbolTableRecord
100
AcDbBlockTableRecord
  2
*D5
340
0
 70
     0
280
     1
281
     0
  0
BLOCK_RECORD
  5
1004F
330
1
100
AcDbSymbolTableRecord
100
AcDbBlockTableRecord
  2
*D6
340
0
 70
     0
280
     1
281
     0
  0
BLOCK_RECORD
  5
1005B
330
1
100
AcDbSymbolTableRecord
100
AcDbBlockTableRecord
  2
*D7
340
0
 70
     0
280
     1
281
     0
  0
BLOCK_RECORD
  5
10066
330
1
100
AcDbSymbolTableRecord
100
AcDbBlockTableRecord
  2
*D8
340
0
 70
     0
280
     1
281
     0
  0
BLOCK_RECORD
  5
10071
330
1
100
AcDbSymbolTableRecord
100
AcDbBlockTableRecord
  2
*D9
340
0
 70
     0
280
     1
281
     0
  0
BLOCK_RECORD
  5
1007C
330
1
100
AcDbSymbolTableRecord
100
AcDbBlockTableRecord
  2
*D10
340
0
 70
     0
280
     1
281
     0
  0
BLOCK_RECORD
  5
10088
330
1
100
AcDbSymbolTableRecord
100
AcDbBlockTableRecord
  2
*D11
340
0
 70
     0
280
     1
281
     0
  0
BLOCK_RECORD
  5
102A5
330
1
100
AcDbSymbolTableRecord
100
AcDbBlockTableRecord
  2
*D12
340
0
 70
     0
280
     1
281
     0
  0
BLOCK_RECORD
  5
102B1
330
1
100
AcDbSymbolTableRecord
100
AcDbBlockTableRecord
  2
*D13
340
0
 70
     0
280
     1
281
     0
  0
BLOCK_RECORD
  5
102BC
330
1
100
AcDbSymbolTableRecord
100
AcDbBlockTableRecord
  2
*D14
340
0
 70
     0
280
     1
281
     0
  0
BLOCK_RECORD
  5
102C7
330
1
100
AcDbSymbolTableRecord
100
AcDbBlockTableRecord
  2
*D15
340
0
 70
     0
280
     1
281
     0
  0
BLOCK_RECORD
  5
102D2
330
1
100
AcDbSymbolTableRecord
100
AcDbBlockTableRecord
  2
*D16
340
0
 70
     0
280
     1
281
     0
  0
BLOCK_RECORD
  5
102DD
330
1
100
AcDbSymbolTableRecord
100
AcDbBlockTableRecord
  2
*D17
340
0
 70
     0
280
     1
281
     0
  0
BLOCK_RECORD
  5
102E8
330
1
100
AcDbSymbolTableRecord
100
AcDbBlockTableRecord
  2
*D18
340
0
 70
     0
280
     1
281
     0
  0
BLOCK_RECORD
  5
102F4
330
1
100
AcDbSymbolTableRecord
100
AcDbBlockTableRecord
  2
*D19
340
0
 70
     0
280
     1
281
     0
  0
BLOCK_RECORD
  5
102FF
330
1
100
AcDbSymbolTableRecord
100
AcDbBlockTableRecord
  2
*D20
340
0
 70
     0
280
     1
281
     0
  0
BLOCK_RECORD
  5
1030B
330
1
100
AcDbSymbolTableRecord
100
AcDbBlockTableRecord
  2
*D21
340
0
 70
     0
280
     1
281
     0
  0
BLOCK_RECORD
  5
105AA
330
1
100
AcDbSymbolTableRecord
100
AcDbBlockTableRecord
  2
*D22
340
0
 70
     0
280
     1
281
     0
  0
BLOCK_RECORD
  5
105B5
330
1
100
AcDbSymbolTableRecord
100
AcDbBlockTableRecord
  2
*D23
340
0
 70
     0
280
     1
281
     0
  0
BLOCK_RECORD
  5
105C0
330
1
100
AcDbSymbolTableRecord
100
AcDbBlockTableRecord
  2
*D24
340
0
 70
     0
280
     1
281
     0
  0
BLOCK_RECORD
  5
105CC
330
1
100
AcDbSymbolTableRecord
100
AcDbBlockTableRecord
  2
*D25
340
0
 70
     0
280
     1
281
     0
  0
BLOCK_RECORD
  5
105D7
330
1
100
AcDbSymbolTableRecord
100
AcDbBlockTableRecord
  2
*D26
340
0
 70
     0
280
     1
281
     0
  0
BLOCK_RECORD
  5
105E2
330
1
100
AcDbSymbolTableRecord
100
AcDbBlockTableRecord
  2
*D27
340
0
 70
     0
280
     1
281
     0
  0
BLOCK_RECORD
  5
105ED
330
1
100
AcDbSymbolTableRecord
100
AcDbBlockTableRecord
  2
*D28
340
0
 70
     0
280
     1
281
     0
  0
BLOCK_RECORD
  5
105F9
330
1
100
AcDbSymbolTableRecord
100
AcDbBlockTableRecord
  2
*D29
340
0
 70
     0
280
     1
281
     0
  0
BLOCK_RECORD
  5
10796
330
1
100
AcDbSymbolTableRecord
100
AcDbBlockTableRecord
  2
B027074-M
340
0
102
{BLKREFS
331
10B40
331
10B41
102
}
 70
     0
280
     1
281
     0
  0
BLOCK_RECORD
  5
1079A
102
{ACAD_XDICTIONARY
360
107B8
102
}
330
1
100
AcDbSymbolTableRecord
100
AcDbBlockTableRecord
  2
gt100
340
0
102
{BLKREFS
331
10D29
331
10CA5
331
10B56
331
10B67
331
107BC
331
107D7
331
107D8
331
107D9
331
108FF
331
10910
102
}
 70
     1
280
     1
281
     0
  0
BLOCK_RECORD
  5
10ABC
330
1
100
AcDbSymbolTableRecord
100
AcDbBlockTableRecord
  2
*D32
340
0
 70
     0
280
     1
281
     0
  0
BLOCK_RECORD
  5
10AC7
330
1
100
AcDbSymbolTableRecord
100
AcDbBlockTableRecord
  2
*D33
340
0
 70
     0
280
     1
281
     0
  0
BLOCK_RECORD
  5
10AD2
330
1
100
AcDbSymbolTableRecord
100
AcDbBlockTableRecord
  2
*D34
340
0
 70
     0
280
     1
281
     0
  0
BLOCK_RECORD
  5
10ADE
330
1
100
AcDbSymbolTableRecord
100
AcDbBlockTableRecord
  2
*D35
340
0
 70
     0
280
     1
281
     0
  0
BLOCK_RECORD
  5
10CB3
330
1
100
AcDbSymbolTableRecord
100
AcDbBlockTableRecord
  2
*D36
340
0
 70
     0
280
     1
281
     0
  0
BLOCK_RECORD
  5
10CBE
330
1
100
AcDbSymbolTableRecord
100
AcDbBlockTableRecord
  2
*D37
340
0
 70
     0
280
     1
281
     0
  0
BLOCK_RECORD
  5
10D2D
330
1
100
AcDbSymbolTableRecord
100
AcDbBlockTableRecord
  2
*D38
340
0
 70
     0
280
     1
281
     0
  0
BLOCK_RECORD
  5
1123A
102
{ACAD_XDICTIONARY
360
116C8
102
}
330
1
100
AcDbSymbolTableRecord
100
AcDbBlockTableRecord
  2
Kawneer Logo English
340
0
102
{BLKREFS
331
1158D
102
}
 70
     1
280
     1
281
     0
1001
AcDbDynamicBlockGUID
1000
{60D3BBE0-9E7E-A34F-91B7-7607A8B2CEFB}
  0
ENDTAB
  0
ENDSEC
  0
SECTION
  2
BLOCKS
  0
BLOCK
  5
6D
330
6C
100
AcDbEntity
  8
0
100
AcDbBlockBegin
  2
*Model_Space
 70
     0
 10
0.0
 20
0.0
 30
0.0
  3
*Model_Space
  1

  0
ENDBLK
  5
6E
330
6C
100
AcDbEntity
  8
0
100
AcDbBlockEnd
  0
BLOCK
  5
69
330
68
100
AcDbEntity
 67
     1
  8
0
100
AcDbBlockBegin
  2
*Paper_Space
 70
     0
 10
0.0
 20
0.0
 30
0.0
  3
*Paper_Space
  1

  0
ENDBLK
  5
6A
330
68
100
AcDbEntity
 67
     1
  8
0
100
AcDbBlockEnd
  0
BLOCK
  5
71
330
70
100
AcDbEntity
 67
     1
  8
0
100
AcDbBlockBegin
  2
*Paper_Space0
 70
     0
 10
0.0
 20
0.0
 30
0.0
  3
*Paper_Space0
  1

  0
ENDBLK
  5
72
330
70
100
AcDbEntity
 67
     1
  8
0
100
AcDbBlockEnd
  0
BLOCK
  5
FF03
330
FF00
100
AcDbEntity
  8
0
100
AcDbBlockBegin
  2
B601CG010
 70
     0
 10
0.0
 20
0.0
 30
0.0
  3
B601CG010
  1

  0
LWPOLYLINE
  5
FF04
330
FF00
100
AcDbEntity
  8
0
100
AcDbPolyline
 90
       30
 70
     1
 43
0.0
 10
-0.9107715645319522
 20
1.485954999999949
 42
0.4142135623730951
 10
-0.8907715645319527
 20
1.465954999999949
 10
-0.8165715675773732
 20
1.465954999999947
 42
-0.1990202627215747
 10
-0.7422945388812324
 20
1.435170382556885
 10
-0.681048766064734
 20
1.373873736655768
 42
0.1990202627215749
 10
-0.6669007605988036
 20
1.368009999999948
 10
-0.0407715645319407
 20
1.368009999999923
 42
-0.3362202179247352
 10
0.0843996697645437
 20
1.273112166666585
 42
0.3362202179247291
 10
0.1036567827332355
 20
1.258512499999918
 10
0.27422843546805
 20
1.258512499999918
 42
0.4142135623730951
 10
0.2942284354680495
 20
1.278512499999918
 10
0.294228435468046
 20
1.42200499999995
 42
0.4142135623730962
 10
0.1842284354680537
 20
1.532004999999942
 10
0.1842284354680537
 20
1.907004999999946
 42
0.4142135623730961
 10
0.294228435468046
 20
2.017004999999938
 10
0.294228435468046
 20
2.922504999999943
 42
0.4142135623730961
 10
0.1842284354680537
 20
3.032504999999935
 10
0.1842284354680537
 20
3.407504999999939
 42
0.4142135623730961
 10
0.294228435468046
 20
3.517504999999931
 10
0.294228435468046
 20
3.902004999999958
 10
-0.1687715645320651
 20
3.902004999999958
 42
-0.4142135623730951
 10
-0.2487715645320634
 20
3.982004999999956
 10
-0.2487715645320598
 20
4.170004999999951
 10
-0.9107715645319522
 20
4.170004999999951
 10
-0.9107715645319487
 20
3.235004999999937
 10
-0.9257715645319528
 20
3.220004999999937
 10
-0.9107715645319522
 20
3.205004999999942
 10
-0.9107715645319522
 20
1.734004999999943
 10
-0.9257715645319581
 20
1.719004999999937
 10
-0.9107715645319558
 20
1.704004999999939
  0
LWPOLYLINE
  5
FF05
330
FF00
100
AcDbEntity
  8
0
100
AcDbPolyline
 90
       23
 70
     1
 43
0.0
 10
-0.1687715645320686
 20
-1.401995000000053
 10
0.2942284354680566
 20
-1.401995000000053
 10
0.294228435468046
 20
-1.016995000000041
 42
0.4142135623730961
 10
0.1842284354680537
 20
-0.906995000000049
 10
0.1842284354680537
 20
-0.5319950000000464
 42
0.4142135623730987
 10
0.2942284354680566
 20
-0.4219950000000532
 10
0.2942284354680566
 20
-0.277497500000047
 42
0.4142135623730951
 10
0.2742284354680571
 20
-0.2574975000000474
 10
0.1039348537560869
 20
-0.2574975000000457
 42
0.3381557511552941
 10
0.084640664651019
 20
-0.272231166666713
 42
-0.3381557511553113
 10
-0.0407715645319407
 20
-0.3680000000000465
 10
-0.6669007605988036
 20
-0.3680000000000509
 42
0.1990202627215833
 10
-0.6810487660647376
 20
-0.3738637366558715
 10
-0.7422945388812252
 20
-0.4351603825569823
 42
-0.199020262721587
 10
-0.8165715675773697
 20
-0.4659450000000503
 10
-0.8907715645319527
 20
-0.4659450000000503
 42
0.4142135623730951
 10
-0.9107715645319522
 20
-0.4859450000000498
 10
-0.9107715645319487
 20
-0.7039950000000595
 10
-0.9257715645319528
 20
-0.7189950000000636
 10
-0.9107715645319522
 20
-0.7339950000000624
 10
-0.9107715645319487
 20
-1.66999500000004
 10
-0.2487715645320669
 20
-1.669995000000036
 10
-0.2487715645320669
 20
-1.481995000000053
 42
-0.4142135623730951
  0
LWPOLYLINE
  5
FF06
330
FF00
100
AcDbEntity
  8
0
100
AcDbPolyline
 90
      149
 70
     1
 43
0.0
 10
-0.1687715645320615
 20
4.170004999999951
 10
-0.1687715645320615
 20
3.982004999999956
 10
0.7362284354680533
 20
3.982004999999956
 42
-0.9999999999999998
 10
0.7362284354680533
 20
3.902004999999958
 10
0.4042284354680348
 20
3.902004999999956
 42
0.4142135623730951
 10
0.3842284354680352
 20
3.882004999999956
 10
0.3842284354680441
 20
3.230004999999937
 10
0.3742284354680443
 20
3.220004999999937
 10
0.384228435468037
 20
3.210004999999946
 10
0.3842284354680441
 20
1.729504999999944
 10
0.3742284354680443
 20
1.719504999999944
 10
0.3842284354680458
 20
1.709504999999946
 10
0.384228435468053
 20
1.047507499999952
 10
0.384228435468053
 20
1.047507499999952
 10
0.3187284354680528
 20
1.04750749999995
 42
-0.9999999999999998
 10
0.3187284354680528
 20
1.078507499999952
 10
0.3192284354680481
 20
1.078507499999952
 42
0.4142135623730951
 10
0.3342284354680487
 20
1.093507499999953
 10
0.3342284354680522
 20
1.173507499999951
 42
0.4142135623730604
 10
0.3192284354680517
 20
1.188507499999952
 10
0.1042284354680518
 20
1.188507499999952
 42
0.4142135623730605
 10
0.0892284354680513
 20
1.173507499999951
 10
0.0892284354680513
 20
1.093507499999953
 42
0.4142135623730951
 10
0.1042284354680518
 20
1.078507499999952
 10
0.1047284354680542
 20
1.078507499999952
 42
-0.9999999999999998
 10
0.1047284354680542
 20
1.047507499999952
 10
0.0892284354680548
 20
1.047507499999952
 10
0.0892284354680513
 20
0.7975074999999539
 10
0.1047284354680542
 20
0.7975074999999539
 42
-0.9999999999999998
 10
0.1047284354680542
 20
0.7665074999999515
 10
0.1042284354680518
 20
0.7665074999999515
 42
0.4142135623730951
 10
0.0892284354680513
 20
0.751507499999951
 10
0.0892284354680548
 20
0.6715074999999527
 42
0.4142135623730605
 10
0.1042284354680554
 20
0.6565074999999521
 10
0.3192284354680517
 20
0.6565074999999521
 42
0.4142135623730605
 10
0.3342284354680522
 20
0.6715074999999527
 10
0.3342284354680487
 20
0.751507499999951
 42
0.4142135623730951
 10
0.3192284354680481
 20
0.7665074999999515
 10
0.3187284354680528
 20
0.7665074999999515
 42
-0.9999999999999998
 10
0.3187284354680528
 20
0.7975074999999539
 10
0.384228435468053
 20
0.7975074999999521
 10
0.384228435468053
 20
0.6001004214351493
 10
0.3022477704192283
 20
0.5527688624008622
 42
-0.3865446749096789
 10
0.2891030718524519
 20
0.5556270577302538
 42
3.127286275187356
 10
0.2891030718524377
 20
0.4453879422696314
 42
-0.3865446749097421
 10
0.3022477704192283
 20
0.4482461375990124
 10
0.384228435468053
 20
0.4009145785647404
 10
0.384228435468053
 20
0.2035074999999429
 10
0.3187284354680528
 20
0.2035074999999411
 42
-0.9999999999999998
 10
0.3187284354680528
 20
0.2345074999999435
 10
0.3192284354680517
 20
0.2345074999999435
 42
0.4142135623730951
 10
0.3342284354680522
 20
0.249507499999944
 10
0.3342284354680558
 20
0.3295074999999432
 42
0.4142135623730777
 10
0.3192284354680552
 20
0.3445074999999429
 10
0.1042284354680554
 20
0.3445074999999429
 42
0.4142135623731038
 10
0.0892284354680548
 20
0.3295074999999432
 10
0.0892284354680548
 20
0.249507499999944
 42
0.4142135623730951
 10
0.1042284354680554
 20
0.2345074999999435
 10
0.1047284354680542
 20
0.2345074999999435
 42
-0.9999999999999998
 10
0.1047284354680542
 20
0.2035074999999429
 10
0.0892284354680548
 20
0.2035074999999429
 10
0.0892284354680548
 20
-0.0464925000000553
 10
0.1047284354680542
 20
-0.0464925000000553
 42
-0.9999999999999998
 10
0.1047284354680542
 20
-0.0774925000000577
 10
0.1042284354680554
 20
-0.0774925000000577
 42
0.4142135623730951
 10
0.0892284354680548
 20
-0.0924925000000583
 10
0.0892284354680584
 20
-0.1724925000000574
 42
0.4142135623730776
 10
0.1042284354680589
 20
-0.1874925000000571
 10
0.3192284354680552
 20
-0.1874925000000571
 42
0.4142135623730776
 10
0.3342284354680558
 20
-0.1724925000000574
 10
0.3342284354680522
 20
-0.0924925000000583
 42
0.4142135623730951
 10
0.3192284354680517
 20
-0.0774925000000577
 10
0.3187284354680528
 20
-0.0774925000000577
 42
-0.9999999999999998
 10
0.3187284354680528
 20
-0.0464925000000553
 10
0.384228435468053
 20
-0.0464925000000571
 10
0.3842284354680441
 20
-0.7094950000000458
 10
0.3742284354680443
 20
-0.7194950000000456
 10
0.3842284354680441
 20
-0.7294950000000427
 10
0.3842284354680352
 20
-1.38199500000005
 42
0.4142135623730951
 10
0.4042284354680348
 20
-1.40199500000005
 10
0.7362284354680462
 20
-1.40199500000005
 42
-0.9999999999999998
 10
0.7362284354680462
 20
-1.481995000000051
 10
-0.1687715645320686
 20
-1.481995000000051
 10
-0.1687715645320686
 20
-1.669995000000036
 10
0.3442284354680503
 20
-1.66999500000005
 42
-0.9999999999999998
 10
0.3442284354680503
 20
-1.749995000000045
 10
-0.9907715645319505
 20
-1.749995000000049
 10
-0.9907715645319505
 20
-0.3929753030303535
 10
-0.8882715645319514
 20
-0.356945000000052
 10
-0.8882715645319514
 20
-0.3859450000000484
 10
-0.8165715645319515
 20
-0.3859450000000493
 42
0.198912367379649
 10
-0.7988938950022835
 20
-0.3786226695297126
 10
-0.7322715645319527
 20
-0.3119450000000503
 10
-0.7322715645319527
 20
-0.2699950000000504
 42
0.3541185725306657
 10
-0.7481133307155936
 20
-0.2504320479853748
 10
-0.8502715645319476
 20
-0.2279950000000488
 10
-0.8882715645319514
 20
-0.2279950000000488
 10
-0.8882715645319514
 20
-0.2569950000000487
 10
-0.9002715645319518
 20
-0.2569950000000487
 42
-0.4142135623731471
 10
-0.9202715645319479
 20
-0.2369950000000491
 10
-0.9202715645319479
 20
-0.2079950000000492
 42
-0.4142135623731209
 10
-0.9002715645319518
 20
-0.1879950000000514
 10
-0.6982765645319482
 20
-0.1879950000000496
 42
-0.4142135623730951
 10
-0.6602715645319499
 20
-0.2260000000000479
 10
-0.6822715645319484
 20
-0.2260000000000479
 10
-0.6822715645319484
 20
-0.263000000000047
 42
0.4142135623731159
 10
-0.6572715645319498
 20
-0.2880000000000473
 10
-0.0407715645319407
 20
-0.2880000000000473
 42
0.4142135623731003
 10
0.0092284354680601
 20
-0.2380000000000475
 10
0.0092284354680601
 20
-0.0564925000000551
 10
0.019228435468051
 20
-0.0464925000000553
 10
0.009228435468053
 20
-0.0364925000000556
 10
0.009228435468053
 20
0.1935074999999413
 10
0.0192284354680545
 20
0.2035074999999411
 10
0.009228435468053
 20
0.2135074999999418
 10
0.0092284354680636
 20
0.4905074999999553
 10
0.0192284354680616
 20
0.5005074999999551
 10
0.0092284354680636
 20
0.5105074999999549
 10
0.0092284354680707
 20
0.7875074999999683
 10
0.019228435468051
 20
0.7975074999999539
 10
0.009228435468053
 20
0.8075074999999536
 10
0.009228435468053
 20
1.03750749999995
 10
0.019228435468051
 20
1.04750749999995
 10
0.009228435468053
 20
1.05750749999995
 10
0.0092284354680601
 20
1.238009999999944
 42
0.4142135623731054
 10
-0.0407715645319407
 20
1.288009999999948
 10
-0.6572715645319498
 20
1.288009999999948
 42
0.4142135623730951
 10
-0.6822715645319484
 20
1.263009999999949
 10
-0.6822715645319484
 20
1.226009999999947
 10
-0.6602715645319499
 20
1.226009999999947
 42
-0.4142135623730951
 10
-0.6982765645319482
 20
1.188004999999948
 10
-0.9002715645319518
 20
1.188004999999948
 42
-0.414213562373069
 10
-0.9202715645319443
 20
1.208004999999948
 10
-0.9202715645319479
 20
1.237004999999948
 42
-0.414213562373069
 10
-0.9002715645319518
 20
1.257004999999951
 10
-0.8882715645319514
 20
1.257004999999947
 10
-0.8882715645319514
 20
1.228004999999948
 10
-0.8502715645319476
 20
1.228004999999948
 10
-0.7481133307155936
 20
1.250442047985272
 42
0.3541185725306684
 10
-0.7322715645319527
 20
1.270004999999949
 10
-0.7322715645319527
 20
1.311954999999949
 10
-0.7988938950022835
 20
1.37863266952961
 42
0.1989123673796607
 10
-0.8165715645319515
 20
1.385954999999947
 10
-0.8882715645319514
 20
1.385954999999947
 10
-0.8882715645319514
 20
1.356954999999951
 10
-0.9907715645319505
 20
1.392985303030251
 10
-0.9907715645319505
 20
4.25000499999995
 10
0.3442284354680432
 20
4.25000499999995
 42
-0.9999999999999998
 10
0.3442284354680432
 20
4.170004999999937
  0
ENDBLK
  5
FF07
330
FF00
100
AcDbEntity
  8
0
100
AcDbBlockEnd
  0
BLOCK
  5
10023
330
10022
100
AcDbEntity
  8
0
100
AcDbBlockBegin
  2
*D2
 70
     1
 10
0.0
 20
0.0
 30
0.0
  3
*D2
  1

  0
LINE
  5
10B9A
330
10022
100
AcDbEntity
  8
DIME
 62
     0
440
 16777216
370
    -2
100
AcDbLine
 10
22.54888579894151
 20
54.24296796587277
 30
0.0
 11
24.10807203043321
 21
54.24296796587277
 31
0.0
  0
LINE
  5
10B9B
330
10022
100
AcDbEntity
  8
DIME
 62
     0
440
 16777216
370
    -2
100
AcDbLine
 10
23.92807203043321
 20
54.49296796587276
 30
0.0
 11
23.92807203043321
 21
57.49287880671404
 31
0.0
  0
SOLID
  5
10B9C
330
10022
100
AcDbEntity
  8
DIME
 62
     0
440
 16777216
100
AcDbTrace
 10
23.88640536376654
 20
54.49296796587276
 30
0.0
 11
23.96973869709988
 21
54.49296796587276
 31
0.0
 12
23.92807203043321
 22
54.24296796587277
 32
0.0
 13
23.92807203043321
 23
54.24296796587277
 33
0.0
  0
SOLID
  5
10B9D
330
10022
100
AcDbEntity
  8
DIME
 62
     0
440
 16777216
100
AcDbTrace
 10
23.88640536376654
 20
57.49287880671404
 30
0.0
 11
23.96973869709988
 21
57.49287880671404
 31
0.0
 12
23.92807203043321
 22
57.74287880671405
 32
0.0
 13
23.92807203043321
 23
57.74287880671405
 33
0.0
  0
MTEXT
  5
10B9E
330
10022
100
AcDbEntity
  8
DIME
 62
     0
440
 16777216
100
AcDbMText
 10
23.7030720304332
 20
55.99292338629341
 30
0.0
 40
0.25
 41
0.0
 46
0.0
 71
     5
 72
     1
  1
\A1;F.W.
 11
0.0000000000000001
 21
1.0
 31
0.0
 73
     1
 44
1.0
  0
POINT
  5
10B9F
330
10022
100
AcDbEntity
  8
DEFPOINTS
 62
     0
440
 16777216
100
AcDbPoint
 10
22.17388579894151
 20
54.24296796587277
 30
0.0
  0
POINT
  5
10BA0
330
10022
100
AcDbEntity
  8
DEFPOINTS
 62
     0
440
 16777216
100
AcDbPoint
 10
19.06353999122659
 20
57.74287880671405
 30
0.0
  0
POINT
  5
10BA1
330
10022
100
AcDbEntity
  8
DEFPOINTS
 62
     0
440
 16777216
100
AcDbPoint
 10
23.92807203043321
 20
57.74287880671405
 30
0.0
  0
ENDBLK
  5
10024
330
10022
100
AcDbEntity
  8
0
100
AcDbBlockEnd
  0
BLOCK
  5
1002E
330
1002D
100
AcDbEntity
  8
0
100
AcDbBlockBegin
  2
*D3
 70
     1
 10
0.0
 20
0.0
 30
0.0
  3
*D3
  1

  0
LINE
  5
108E6
330
1002D
100
AcDbEntity
  8
DIME
 62
     0
440
 16777216
370
    -2
100
AcDbLine
 10
19.04888653612624
 20
55.74287880671404
 30
0.0
 11
23.48304075534796
 21
55.74287880671404
 31
0.0
  0
LINE
  5
108E7
330
1002D
100
AcDbEntity
  8
DIME
 62
     0
440
 16777216
370
    -2
100
AcDbLine
 10
23.30304075534797
 20
55.99287880671404
 30
0.0
 11
23.30304075534797
 21
57.49287880671404
 31
0.0
  0
SOLID
  5
108E8
330
1002D
100
AcDbEntity
  8
DIME
 62
     0
440
 16777216
100
AcDbTrace
 10
23.2613740886813
 20
55.99287880671404
 30
0.0
 11
23.34470742201463
 21
55.99287880671404
 31
0.0
 12
23.30304075534797
 22
55.74287880671404
 32
0.0
 13
23.30304075534797
 23
55.74287880671404
 33
0.0
  0
SOLID
  5
108E9
330
1002D
100
AcDbEntity
  8
DIME
 62
     0
440
 16777216
100
AcDbTrace
 10
23.2613740886813
 20
57.49287880671404
 30
0.0
 11
23.34470742201464
 21
57.49287880671404
 31
0.0
 12
23.30304075534797
 22
57.74287880671405
 32
0.0
 13
23.30304075534797
 23
57.74287880671405
 33
0.0
  0
MTEXT
  5
108EA
330
1002D
100
AcDbEntity
  8
DIME
 62
     0
440
 16777216
100
AcDbMText
 10
23.07369218781726
 20
56.74287880671404
 30
0.0
 40
0.25
 41
0.0
 46
0.0
 71
     5
 72
     1
  1
\A1;DLO
 11
0.0000000000000001
 21
1.0
 31
0.0
 73
     1
 44
1.0
  0
POINT
  5
108EB
330
1002D
100
AcDbEntity
  8
DEFPOINTS
 62
     0
440
 16777216
100
AcDbPoint
 10
18.67388653612624
 20
55.74287880671404
 30
0.0
  0
POINT
  5
108EC
330
1002D
100
AcDbEntity
  8
DEFPOINTS
 62
     0
440
 16777216
100
AcDbPoint
 10
18.67393111570561
 20
57.74287880671405
 30
0.0
  0
POINT
  5
108ED
330
1002D
100
AcDbEntity
  8
DEFPOINTS
 62
     0
440
 16777216
100
AcDbPoint
 10
23.30304075534797
 20
57.74287880671405
 30
0.0
  0
ENDBLK
  5
1002F
330
1002D
100
AcDbEntity
  8
0
100
AcDbBlockEnd
  0
BLOCK
  5
10039
330
10038
100
AcDbEntity
  8
0
100
AcDbBlockBegin
  2
*D4
 70
     1
 10
0.0
 20
0.0
 30
0.0
  3
*D4
  1

  0
LINE
  5
10BA2
330
10038
100
AcDbEntity
  8
DIME
 62
     0
440
 16777216
370
    -2
100
AcDbLine
 10
22.54888579894151
 20
54.24296796587277
 30
0.0
 11
24.73303250812532
 21
54.24296796587277
 31
0.0
  0
LINE
  5
10BA3
330
10038
100
AcDbEntity
  8
DIME
 62
     0
440
 16777216
370
    -2
100
AcDbLine
 10
24.55303250812532
 20
54.49296796587276
 30
0.0
 11
24.55303250812532
 21
57.49287880671404
 31
0.0
  0
SOLID
  5
10BA4
330
10038
100
AcDbEntity
  8
DIME
 62
     0
440
 16777216
100
AcDbTrace
 10
24.51136584145865
 20
54.49296796587276
 30
0.0
 11
24.59469917479199
 21
54.49296796587276
 31
0.0
 12
24.55303250812532
 22
54.24296796587277
 32
0.0
 13
24.55303250812532
 23
54.24296796587277
 33
0.0
  0
SOLID
  5
10BA5
330
10038
100
AcDbEntity
  8
DIME
 62
     0
440
 16777216
100
AcDbTrace
 10
24.51136584145865
 20
57.49287880671404
 30
0.0
 11
24.59469917479199
 21
57.49287880671404
 31
0.0
 12
24.55303250812532
 22
57.74287880671405
 32
0.0
 13
24.55303250812532
 23
57.74287880671405
 33
0.0
  0
MTEXT
  5
10BA6
330
10038
100
AcDbEntity
  8
DIME
 62
     0
440
 16777216
100
AcDbMText
 10
24.32368394059461
 20
55.99292338629341
 30
0.0
 40
0.25
 41
0.0
 46
0.0
 71
     5
 72
     1
  1
\A1;O.D.
 11
0.0000000000000001
 21
1.0
 31
0.0
 73
     1
 44
1.0
  0
POINT
  5
10BA7
330
10038
100
AcDbEntity
  8
DEFPOINTS
 62
     0
440
 16777216
100
AcDbPoint
 10
22.17388579894151
 20
54.24296796587277
 30
0.0
  0
POINT
  5
10BA8
330
10038
100
AcDbEntity
  8
DEFPOINTS
 62
     0
440
 16777216
100
AcDbPoint
 10
19.06353999122659
 20
57.74287880671405
 30
0.0
  0
POINT
  5
10BA9
330
10038
100
AcDbEntity
  8
DEFPOINTS
 62
     0
440
 16777216
100
AcDbPoint
 10
24.55303250812532
 20
57.74287880671405
 30
0.0
  0
ENDBLK
  5
1003A
330
10038
100
AcDbEntity
  8
0
100
AcDbBlockEnd
  0
BLOCK
  5
10044
330
10043
100
AcDbEntity
  8
0
100
AcDbBlockBegin
  2
*D5
 70
     1
 10
0.0
 20
0.0
 30
0.0
  3
*D5
  1

  0
LINE
  5
108BB
330
10043
100
AcDbEntity
  8
DIME
 62
     0
440
 16777216
370
    -2
100
AcDbLine
 10
22.54888579894151
 20
48.24287880671404
 30
0.0
 11
24.73302617681925
 21
48.24287880671404
 31
0.0
  0
LINE
  5
108BC
330
10043
100
AcDbEntity
  8
DIME
 62
     0
440
 16777216
370
    -2
100
AcDbLine
 10
22.54888579894151
 20
54.24296796587277
 30
0.0
 11
24.73302617681925
 21
54.24296796587277
 31
0.0
  0
LINE
  5
108BD
330
10043
100
AcDbEntity
  8
DIME
 62
     0
440
 16777216
370
    -2
100
AcDbLine
 10
24.55302617681925
 20
48.49287880671404
 30
0.0
 11
24.55302617681925
 21
53.99296796587276
 31
0.0
  0
SOLID
  5
108BE
330
10043
100
AcDbEntity
  8
DIME
 62
     0
440
 16777216
100
AcDbTrace
 10
24.51135951015258
 20
48.49287880671404
 30
0.0
 11
24.59469284348591
 21
48.49287880671404
 31
0.0
 12
24.55302617681925
 22
48.24287880671404
 32
0.0
 13
24.55302617681925
 23
48.24287880671404
 33
0.0
  0
SOLID
  5
108BF
330
10043
100
AcDbEntity
  8
DIME
 62
     0
440
 16777216
100
AcDbTrace
 10
24.51135951015258
 20
53.99296796587276
 30
0.0
 11
24.59469284348591
 21
53.99296796587276
 31
0.0
 12
24.55302617681925
 22
54.24296796587277
 32
0.0
 13
24.55302617681925
 23
54.24296796587277
 33
0.0
  0
MTEXT
  5
108C0
330
10043
100
AcDbEntity
  8
DIME
 62
     0
440
 16777216
100
AcDbMText
 10
24.32538292988882
 20
51.24292338629341
 30
0.0
 40
0.25
 41
0.0
 46
0.0
 71
     5
 72
     1
  1
\A1;6"
 11
0.0000000000000001
 21
1.0
 31
0.0
 73
     1
 44
1.0
  0
POINT
  5
108C1
330
10043
100
AcDbEntity
  8
DEFPOINTS
 62
     0
440
 16777216
100
AcDbPoint
 10
22.17388579894151
 20
48.24287880671404
 30
0.0
  0
POINT
  5
108C2
330
10043
100
AcDbEntity
  8
DEFPOINTS
 62
     0
440
 16777216
100
AcDbPoint
 10
22.17388579894151
 20
54.24296796587277
 30
0.0
  0
POINT
  5
108C3
330
10043
100
AcDbEntity
  8
DEFPOINTS
 62
     0
440
 16777216
100
AcDbPoint
 10
24.55302617681925
 20
54.24296796587277
 30
0.0
  0
ENDBLK
  5
10045
330
10043
100
AcDbEntity
  8
0
100
AcDbBlockEnd
  0
BLOCK
  5
10050
330
1004F
100
AcDbEntity
  8
0
100
AcDbBlockBegin
  2
*D6
 70
     1
 10
0.0
 20
0.0
 30
0.0
  3
*D6
  1

  0
LINE
  5
108C4
330
1004F
100
AcDbEntity
  8
DIME
 62
     0
440
 16777216
370
    -2
100
AcDbLine
 10
12.67379737696751
 20
58.11787880671404
 30
0.0
 11
12.67379737696751
 21
60.08755404479902
 31
0.0
  0
LINE
  5
108C5
330
1004F
100
AcDbEntity
  8
DIME
 62
     0
440
 16777216
370
    -2
100
AcDbLine
 10
18.67393111570561
 20
58.11787880671404
 30
0.0
 11
18.67393111570561
 21
60.08755404479902
 31
0.0
  0
LINE
  5
108C6
330
1004F
100
AcDbEntity
  8
DIME
 62
     0
440
 16777216
370
    -2
100
AcDbLine
 10
12.9237973769675
 20
59.90755404479902
 30
0.0
 11
18.42393111570561
 21
59.90755404479902
 31
0.0
  0
SOLID
  5
108C7
330
1004F
100
AcDbEntity
  8
DIME
 62
     0
440
 16777216
100
AcDbTrace
 10
12.9237973769675
 20
59.94922071146569
 30
0.0
 11
12.9237973769675
 21
59.86588737813236
 31
0.0
 12
12.67379737696751
 22
59.90755404479902
 32
0.0
 13
12.67379737696751
 23
59.90755404479902
 33
0.0
  0
SOLID
  5
108C8
330
1004F
100
AcDbEntity
  8
DIME
 62
     0
440
 16777216
100
AcDbTrace
 10
18.42393111570561
 20
59.94922071146569
 30
0.0
 11
18.42393111570561
 21
59.86588737813236
 31
0.0
 12
18.67393111570561
 22
59.90755404479902
 32
0.0
 13
18.67393111570561
 23
59.90755404479902
 33
0.0
  0
MTEXT
  5
108C9
330
1004F
100
AcDbEntity
  8
DIME
 62
     0
440
 16777216
100
AcDbMText
 10
15.67386424633656
 20
60.13519729172944
 30
0.0
 40
0.25
 41
0.0
 46
0.0
 71
     5
 72
     1
  1
\A1;6"
 73
     1
 44
1.0
  0
POINT
  5
108CA
330
1004F
100
AcDbEntity
  8
DEFPOINTS
 62
     0
440
 16777216
100
AcDbPoint
 10
12.67379737696751
 20
57.74287880671405
 30
0.0
  0
POINT
  5
108CB
330
1004F
100
AcDbEntity
  8
DEFPOINTS
 62
     0
440
 16777216
100
AcDbPoint
 10
18.67393111570561
 20
57.74287880671405
 30
0.0
  0
POINT
  5
108CC
330
1004F
100
AcDbEntity
  8
DEFPOINTS
 62
     0
440
 16777216
100
AcDbPoint
 10
18.67393111570561
 20
59.90755404479902
 30
0.0
  0
ENDBLK
  5
10051
330
1004F
100
AcDbEntity
  8
0
100
AcDbBlockEnd
  0
BLOCK
  5
1005C
330
1005B
100
AcDbEntity
  8
0
100
AcDbBlockBegin
  2
*D7
 70
     1
 10
0.0
 20
0.0
 30
0.0
  3
*D7
  1

  0
LINE
  5
10BAA
330
1005B
100
AcDbEntity
  8
DIME
 62
     0
440
 16777216
370
    -2
100
AcDbLine
 10
20.1738857989415
 20
54.61796796587276
 30
0.0
 11
20.1738857989415
 21
58.83755404479902
 31
0.0
  0
LINE
  5
10BAB
330
1005B
100
AcDbEntity
  8
DIME
 62
     0
440
 16777216
370
    -2
100
AcDbLine
 10
20.42388579894151
 20
58.65755404479902
 30
0.0
 11
21.92388579894151
 21
58.65755404479902
 31
0.0
  0
SOLID
  5
10BAC
330
1005B
100
AcDbEntity
  8
DIME
 62
     0
440
 16777216
100
AcDbTrace
 10
20.42388579894151
 20
58.69922071146569
 30
0.0
 11
20.42388579894151
 21
58.61588737813236
 31
0.0
 12
20.1738857989415
 22
58.65755404479902
 32
0.0
 13
20.1738857989415
 23
58.65755404479902
 33
0.0
  0
SOLID
  5
10BAD
330
1005B
100
AcDbEntity
  8
DIME
 62
     0
440
 16777216
100
AcDbTrace
 10
21.92388579894151
 20
58.69922071146569
 30
0.0
 11
21.92388579894151
 21
58.61588737813236
 31
0.0
 12
22.17388579894151
 22
58.65755404479902
 32
0.0
 13
22.17388579894151
 23
58.65755404479902
 33
0.0
  0
MTEXT
  5
10BAE
330
1005B
100
AcDbEntity
  8
DIME
 62
     0
440
 16777216
100
AcDbMText
 10
21.1738857989415
 20
58.88690261232972
 30
0.0
 40
0.25
 41
0.0
 46
0.0
 71
     5
 72
     1
  1
\A1;DLO
 73
     1
 44
1.0
  0
POINT
  5
10BAF
330
1005B
100
AcDbEntity
  8
DEFPOINTS
 62
     0
440
 16777216
100
AcDbPoint
 10
20.1738857989415
 20
54.24296796587277
 30
0.0
  0
POINT
  5
10BB0
330
1005B
100
AcDbEntity
  8
DEFPOINTS
 62
     0
440
 16777216
100
AcDbPoint
 10
22.17388579894151
 20
54.667454196074
 30
0.0
  0
POINT
  5
10BB1
330
1005B
100
AcDbEntity
  8
DEFPOINTS
 62
     0
440
 16777216
100
AcDbPoint
 10
22.17388579894151
 20
58.65755404479902
 30
0.0
  0
ENDBLK
  5
1005D
330
1005B
100
AcDbEntity
  8
0
100
AcDbBlockEnd
  0
BLOCK
  5
10067
330
10066
100
AcDbEntity
  8
0
100
AcDbBlockBegin
  2
*D8
 70
     1
 10
0.0
 20
0.0
 30
0.0
  3
*D8
  1

  0
LINE
  5
108CD
330
10066
100
AcDbEntity
  8
DIME
 62
     0
440
 16777216
370
    -2
100
AcDbLine
 10
18.67393111570561
 20
58.11787880671404
 30
0.0
 11
18.67393111570561
 21
59.46255404479902
 31
0.0
  0
LINE
  5
108CE
330
10066
100
AcDbEntity
  8
DIME
 62
     0
440
 16777216
370
    -2
100
AcDbLine
 10
18.92393111570561
 20
59.28255404479902
 30
0.0
 11
21.92388579894151
 21
59.28255404479902
 31
0.0
  0
SOLID
  5
108CF
330
10066
100
AcDbEntity
  8
DIME
 62
     0
440
 16777216
100
AcDbTrace
 10
18.92393111570561
 20
59.32422071146569
 30
0.0
 11
18.92393111570561
 21
59.24088737813236
 31
0.0
 12
18.67393111570561
 22
59.28255404479902
 32
0.0
 13
18.67393111570561
 23
59.28255404479902
 33
0.0
  0
SOLID
  5
108D0
330
10066
100
AcDbEntity
  8
DIME
 62
     0
440
 16777216
100
AcDbTrace
 10
21.92388579894151
 20
59.32422071146569
 30
0.0
 11
21.92388579894151
 21
59.24088737813236
 31
0.0
 12
22.17388579894151
 22
59.28255404479902
 32
0.0
 13
22.17388579894151
 23
59.28255404479902
 33
0.0
  0
MTEXT
  5
108D1
330
10066
100
AcDbEntity
  8
DIME
 62
     0
440
 16777216
100
AcDbMText
 10
20.42390845732356
 20
59.50755404479902
 30
0.0
 40
0.25
 41
0.0
 46
0.0
 71
     5
 72
     1
  1
\A1;F.W.
 73
     1
 44
1.0
  0
POINT
  5
108D2
330
10066
100
AcDbEntity
  8
DEFPOINTS
 62
     0
440
 16777216
100
AcDbPoint
 10
18.67393111570561
 20
57.74287880671405
 30
0.0
  0
POINT
  5
108D3
330
10066
100
AcDbEntity
  8
DEFPOINTS
 62
     0
440
 16777216
100
AcDbPoint
 10
22.17388579894151
 20
54.667454196074
 30
0.0
  0
POINT
  5
108D4
330
10066
100
AcDbEntity
  8
DEFPOINTS
 62
     0
440
 16777216
100
AcDbPoint
 10
22.17388579894151
 20
59.28255404479902
 30
0.0
  0
ENDBLK
  5
10068
330
10066
100
AcDbEntity
  8
0
100
AcDbBlockEnd
  0
BLOCK
  5
10072
330
10071
100
AcDbEntity
  8
0
100
AcDbBlockBegin
  2
*D9
 70
     1
 10
0.0
 20
0.0
 30
0.0
  3
*D9
  1

  0
LINE
  5
108D5
330
10071
100
AcDbEntity
  8
DIME
 62
     0
440
 16777216
370
    -2
100
AcDbLine
 10
18.67393111570561
 20
58.11787880671404
 30
0.0
 11
18.67393111570561
 21
60.08755404479902
 31
0.0
  0
LINE
  5
108D6
330
10071
100
AcDbEntity
  8
DIME
 62
     0
440
 16777216
370
    -2
100
AcDbLine
 10
18.92393111570561
 20
59.90755404479902
 30
0.0
 11
21.92388579894151
 21
59.90755404479902
 31
0.0
  0
SOLID
  5
108D7
330
10071
100
AcDbEntity
  8
DIME
 62
     0
440
 16777216
100
AcDbTrace
 10
18.92393111570561
 20
59.94922071146569
 30
0.0
 11
18.92393111570561
 21
59.86588737813236
 31
0.0
 12
18.67393111570561
 22
59.90755404479902
 32
0.0
 13
18.67393111570561
 23
59.90755404479902
 33
0.0
  0
SOLID
  5
108D8
330
10071
100
AcDbEntity
  8
DIME
 62
     0
440
 16777216
100
AcDbTrace
 10
21.92388579894151
 20
59.94922071146569
 30
0.0
 11
21.92388579894151
 21
59.86588737813236
 31
0.0
 12
22.17388579894151
 22
59.90755404479902
 32
0.0
 13
22.17388579894151
 23
59.90755404479902
 33
0.0
  0
MTEXT
  5
108D9
330
10071
100
AcDbEntity
  8
DIME
 62
     0
440
 16777216
100
AcDbMText
 10
20.42390845732356
 20
60.13690261232972
 30
0.0
 40
0.25
 41
0.0
 46
0.0
 71
     5
 72
     1
  1
\A1;O.D.
 73
     1
 44
1.0
  0
POINT
  5
108DA
330
10071
100
AcDbEntity
  8
DEFPOINTS
 62
     0
440
 16777216
100
AcDbPoint
 10
18.67393111570561
 20
57.74287880671405
 30
0.0
  0
POINT
  5
108DB
330
10071
100
AcDbEntity
  8
DEFPOINTS
 62
     0
440
 16777216
100
AcDbPoint
 10
22.17388579894151
 20
54.667454196074
 30
0.0
  0
POINT
  5
108DC
330
10071
100
AcDbEntity
  8
DEFPOINTS
 62
     0
440
 16777216
100
AcDbPoint
 10
22.17388579894151
 20
59.90755404479902
 30
0.0
  0
ENDBLK
  5
10073
330
10071
100
AcDbEntity
  8
0
100
AcDbBlockEnd
  0
BLOCK
  5
1007D
330
1007C
100
AcDbEntity
  8
0
100
AcDbBlockBegin
  2
*D10
 70
     1
 10
0.0
 20
0.0
 30
0.0
  3
*D10
  1

  0
LINE
  5
10899
330
1007C
100
AcDbEntity
  8
DIME
 62
     0
440
 16777216
370
    -2
100
AcDbLine
 10
19.04888958397834
 20
55.74287880671404
 30
0.0
 11
23.48304366077957
 21
55.74287880671404
 31
0.0
  0
LINE
  5
1089A
330
1007C
100
AcDbEntity
  8
DIME
 62
     0
440
 16777216
370
    -2
100
AcDbLine
 10
22.54888579894151
 20
54.24296796587278
 30
0.0
 11
23.48304366077957
 21
54.24296796587278
 31
0.0
  0
LINE
  5
1089B
330
1007C
100
AcDbEntity
  8
DIME
 62
     0
440
 16777216
370
    -2
100
AcDbLine
 10
23.30304366077957
 20
55.49287880671403
 30
0.0
 11
23.30304366077957
 21
54.49296796587279
 31
0.0
  0
SOLID
  5
1089C
330
1007C
100
AcDbEntity
  8
DIME
 62
     0
440
 16777216
100
AcDbTrace
 10
23.2613769941129
 20
55.49287880671403
 30
0.0
 11
23.34471032744624
 21
55.49287880671403
 31
0.0
 12
23.30304366077957
 22
55.74287880671404
 32
0.0
 13
23.30304366077957
 23
55.74287880671404
 33
0.0
  0
SOLID
  5
1089D
330
1007C
100
AcDbEntity
  8
DIME
 62
     0
440
 16777216
100
AcDbTrace
 10
23.2613769941129
 20
54.49296796587279
 30
0.0
 11
23.34471032744624
 21
54.49296796587279
 31
0.0
 12
23.30304366077957
 22
54.24296796587278
 32
0.0
 13
23.30304366077957
 23
54.24296796587278
 33
0.0
  0
MTEXT
  5
1089E
330
1007C
100
AcDbEntity
  8
DIME
 62
     0
440
 16777216
100
AcDbMText
 10
23.07378035927888
 20
54.99292338629341
 30
0.0
 40
0.25
 41
0.0
 46
0.0
 71
     5
 72
     1
  1
\A1;1 1/2"
 11
0.0000000000000001
 21
1.0
 31
0.0
 73
     1
 44
1.0
  0
POINT
  5
1089F
330
1007C
100
AcDbEntity
  8
DEFPOINTS
 62
     0
440
 16777216
100
AcDbPoint
 10
18.67388958397834
 20
55.74287880671404
 30
0.0
  0
POINT
  5
108A0
330
1007C
100
AcDbEntity
  8
DEFPOINTS
 62
     0
440
 16777216
100
AcDbPoint
 10
22.17388579894151
 20
54.24296796587278
 30
0.0
  0
POINT
  5
108A1
330
1007C
100
AcDbEntity
  8
DEFPOINTS
 62
     0
440
 16777216
100
AcDbPoint
 10
23.30304366077957
 20
54.24296796587278
 30
0.0
  0
ENDBLK
  5
1007E
330
1007C
100
AcDbEntity
  8
0
100
AcDbBlockEnd
  0
BLOCK
  5
10089
330
10088
100
AcDbEntity
  8
0
100
AcDbBlockBegin
  2
*D11
 70
     1
 10
0.0
 20
0.0
 30
0.0
  3
*D11
  1

  0
LINE
  5
108DD
330
10088
100
AcDbEntity
  8
DIME
 62
     0
440
 16777216
370
    -2
100
AcDbLine
 10
18.67393111570561
 20
58.11787880671404
 30
0.0
 11
18.67393111570561
 21
58.83755404479902
 31
0.0
  0
LINE
  5
108DE
330
10088
100
AcDbEntity
  8
DIME
 62
     0
440
 16777216
370
    -2
100
AcDbLine
 10
20.1738857989415
 20
54.61796796587276
 30
0.0
 11
20.1738857989415
 21
58.83755404479902
 31
0.0
  0
LINE
  5
108DF
330
10088
100
AcDbEntity
  8
DIME
 62
     0
440
 16777216
370
    -2
100
AcDbLine
 10
18.92393111570561
 20
58.65755404479902
 30
0.0
 11
19.9238857989415
 21
58.65755404479902
 31
0.0
  0
SOLID
  5
108E0
330
10088
100
AcDbEntity
  8
DIME
 62
     0
440
 16777216
100
AcDbTrace
 10
18.92393111570561
 20
58.69922071146569
 30
0.0
 11
18.92393111570561
 21
58.61588737813236
 31
0.0
 12
18.67393111570561
 22
58.65755404479902
 32
0.0
 13
18.67393111570561
 23
58.65755404479902
 33
0.0
  0
SOLID
  5
108E1
330
10088
100
AcDbEntity
  8
DIME
 62
     0
440
 16777216
100
AcDbTrace
 10
19.9238857989415
 20
58.69922071146569
 30
0.0
 11
19.9238857989415
 21
58.61588737813236
 31
0.0
 12
20.1738857989415
 22
58.65755404479902
 32
0.0
 13
20.1738857989415
 23
58.65755404479902
 33
0.0
  0
MTEXT
  5
108E2
330
10088
100
AcDbEntity
  8
DIME
 62
     0
440
 16777216
100
AcDbMText
 10
19.42390845732356
 20
58.88681734629971
 30
0.0
 40
0.25
 41
0.0
 46
0.0
 71
     5
 72
     1
  1
\A1;1 1/2"
 73
     1
 44
1.0
  0
POINT
  5
108E3
330
10088
100
AcDbEntity
  8
DEFPOINTS
 62
     0
440
 16777216
100
AcDbPoint
 10
18.67393111570561
 20
57.74287880671405
 30
0.0
  0
POINT
  5
108E4
330
10088
100
AcDbEntity
  8
DEFPOINTS
 62
     0
440
 16777216
100
AcDbPoint
 10
20.1738857989415
 20
54.24296796587277
 30
0.0
  0
POINT
  5
108E5
330
10088
100
AcDbEntity
  8
DEFPOINTS
 62
     0
440
 16777216
100
AcDbPoint
 10
20.1738857989415
 20
58.65755404479902
 30
0.0
  0
ENDBLK
  5
1008A
330
10088
100
AcDbEntity
  8
0
100
AcDbBlockEnd
  0
BLOCK
  5
102A6
330
102A5
100
AcDbEntity
  8
0
100
AcDbBlockBegin
  2
*D12
 70
     1
 10
0.0
 20
0.0
 30
0.0
  3
*D12
  1

  0
LINE
  5
1082B
330
102A5
100
AcDbEntity
  8
DIME
 62
     0
440
 16777216
370
    -2
100
AcDbLine
 10
39.16576050832003
 20
47.62239590349536
 30
0.0
 11
39.16576050832003
 21
45.65272066541036
 31
0.0
  0
LINE
  5
1082C
330
102A5
100
AcDbEntity
  8
DIME
 62
     0
440
 16777216
370
    -2
100
AcDbLine
 10
45.16589424705813
 20
47.62239590349536
 30
0.0
 11
45.16589424705813
 21
45.65272066541036
 31
0.0
  0
LINE
  5
1082D
330
102A5
100
AcDbEntity
  8
DIME
 62
     0
440
 16777216
370
    -2
100
AcDbLine
 10
39.41576050832003
 20
45.83272066541037
 30
0.0
 11
44.91589424705813
 21
45.83272066541037
 31
0.0
  0
SOLID
  5
1082E
330
102A5
100
AcDbEntity
  8
DIME
 62
     0
440
 16777216
100
AcDbTrace
 10
39.41576050832003
 20
45.87438733207704
 30
0.0
 11
39.41576050832003
 21
45.79105399874371
 31
0.0
 12
39.16576050832003
 22
45.83272066541037
 32
0.0
 13
39.16576050832003
 23
45.83272066541037
 33
0.0
  0
SOLID
  5
1082F
330
102A5
100
AcDbEntity
  8
DIME
 62
     0
440
 16777216
100
AcDbTrace
 10
44.91589424705813
 20
45.87438733207704
 30
0.0
 11
44.91589424705813
 21
45.79105399874371
 31
0.0
 12
45.16589424705813
 22
45.83272066541037
 32
0.0
 13
45.16589424705813
 23
45.83272066541037
 33
0.0
  0
MTEXT
  5
10830
330
102A5
100
AcDbEntity
  8
DIME
 62
     0
440
 16777216
100
AcDbMText
 10
42.16582737768908
 20
46.06036391234079
 30
0.0
 40
0.25
 41
0.0
 46
0.0
 71
     5
 72
     1
  1
\A1;6"
 73
     1
 44
1.0
  0
POINT
  5
10831
330
102A5
100
AcDbEntity
  8
DEFPOINTS
 62
     0
440
 16777216
100
AcDbPoint
 10
39.16576050832003
 20
47.99739590349536
 30
0.0
  0
POINT
  5
10832
330
102A5
100
AcDbEntity
  8
DEFPOINTS
 62
     0
440
 16777216
100
AcDbPoint
 10
45.16589424705813
 20
47.99739590349536
 30
0.0
  0
POINT
  5
10833
330
102A5
100
AcDbEntity
  8
DEFPOINTS
 62
     0
440
 16777216
100
AcDbPoint
 10
45.16589424705813
 20
45.83272066541037
 30
0.0
  0
ENDBLK
  5
102A7
330
102A5
100
AcDbEntity
  8
0
100
AcDbBlockEnd
  0
BLOCK
  5
102B2
330
102B1
100
AcDbEntity
  8
0
100
AcDbBlockBegin
  2
*D13
 70
     1
 10
0.0
 20
0.0
 30
0.0
  3
*D13
  1

  0
LINE
  5
10878
330
102B1
100
AcDbEntity
  8
DIME
 62
     0
440
 16777216
370
    -2
100
AcDbLine
 10
46.66584893029402
 20
51.12230674433663
 30
0.0
 11
46.66584893029402
 21
46.90272066541036
 31
0.0
  0
LINE
  5
10879
330
102B1
100
AcDbEntity
  8
DIME
 62
     0
440
 16777216
370
    -2
100
AcDbLine
 10
46.91584893029403
 20
47.08272066541037
 30
0.0
 11
48.41584893029402
 21
47.08272066541037
 31
0.0
  0
SOLID
  5
1087A
330
102B1
100
AcDbEntity
  8
DIME
 62
     0
440
 16777216
100
AcDbTrace
 10
46.91584893029403
 20
47.12438733207704
 30
0.0
 11
46.91584893029403
 21
47.04105399874371
 31
0.0
 12
46.66584893029402
 22
47.08272066541037
 32
0.0
 13
46.66584893029402
 23
47.08272066541037
 33
0.0
  0
SOLID
  5
1087B
330
102B1
100
AcDbEntity
  8
DIME
 62
     0
440
 16777216
100
AcDbTrace
 10
48.41584893029402
 20
47.12438733207704
 30
0.0
 11
48.41584893029402
 21
47.04105399874371
 31
0.0
 12
48.66584893029402
 22
47.08272066541037
 32
0.0
 13
48.66584893029402
 23
47.08272066541037
 33
0.0
  0
MTEXT
  5
1087C
330
102B1
100
AcDbEntity
  8
DIME
 62
     0
440
 16777216
100
AcDbMText
 10
47.66584893029402
 20
47.31206923294106
 30
0.0
 40
0.25
 41
0.0
 46
0.0
 71
     5
 72
     1
  1
\A1;DLO
 73
     1
 44
1.0
  0
POINT
  5
1087D
330
102B1
100
AcDbEntity
  8
DEFPOINTS
 62
     0
440
 16777216
100
AcDbPoint
 10
46.66584893029402
 20
51.49730674433663
 30
0.0
  0
POINT
  5
1087E
330
102B1
100
AcDbEntity
  8
DEFPOINTS
 62
     0
440
 16777216
100
AcDbPoint
 10
48.66584893029402
 20
51.03646557356466
 30
0.0
  0
POINT
  5
1087F
330
102B1
100
AcDbEntity
  8
DEFPOINTS
 62
     0
440
 16777216
100
AcDbPoint
 10
48.66584893029402
 20
47.08272066541037
 30
0.0
  0
ENDBLK
  5
102B3
330
102B1
100
AcDbEntity
  8
0
100
AcDbBlockEnd
  0
BLOCK
  5
102BD
330
102BC
100
AcDbEntity
  8
0
100
AcDbBlockBegin
  2
*D14
 70
     1
 10
0.0
 20
0.0
 30
0.0
  3
*D14
  1

  0
LINE
  5
10868
330
102BC
100
AcDbEntity
  8
DIME
 62
     0
440
 16777216
370
    -2
100
AcDbLine
 10
45.16589424705813
 20
47.62239590349536
 30
0.0
 11
45.16589424705813
 21
46.27772066541036
 31
0.0
  0
LINE
  5
10869
330
102BC
100
AcDbEntity
  8
DIME
 62
     0
440
 16777216
370
    -2
100
AcDbLine
 10
45.41589424705813
 20
46.45772066541037
 30
0.0
 11
48.41584893029402
 21
46.45772066541037
 31
0.0
  0
SOLID
  5
1086A
330
102BC
100
AcDbEntity
  8
DIME
 62
     0
440
 16777216
100
AcDbTrace
 10
45.41589424705813
 20
46.49938733207704
 30
0.0
 11
45.41589424705813
 21
46.41605399874371
 31
0.0
 12
45.16589424705813
 22
46.45772066541037
 32
0.0
 13
45.16589424705813
 23
46.45772066541037
 33
0.0
  0
SOLID
  5
1086B
330
102BC
100
AcDbEntity
  8
DIME
 62
     0
440
 16777216
100
AcDbTrace
 10
48.41584893029402
 20
46.49938733207704
 30
0.0
 11
48.41584893029402
 21
46.41605399874371
 31
0.0
 12
48.66584893029402
 22
46.45772066541037
 32
0.0
 13
48.66584893029402
 23
46.45772066541037
 33
0.0
  0
MTEXT
  5
1086C
330
102BC
100
AcDbEntity
  8
DIME
 62
     0
440
 16777216
100
AcDbMText
 10
46.91587158867608
 20
46.68272066541037
 30
0.0
 40
0.25
 41
0.0
 46
0.0
 71
     5
 72
     1
  1
\A1;F.W.
 73
     1
 44
1.0
  0
POINT
  5
1086D
330
102BC
100
AcDbEntity
  8
DEFPOINTS
 62
     0
440
 16777216
100
AcDbPoint
 10
45.16589424705813
 20
47.99739590349536
 30
0.0
  0
POINT
  5
1086E
330
102BC
100
AcDbEntity
  8
DEFPOINTS
 62
     0
440
 16777216
100
AcDbPoint
 10
48.66584893029402
 20
51.03646557356466
 30
0.0
  0
POINT
  5
1086F
330
102BC
100
AcDbEntity
  8
DEFPOINTS
 62
     0
440
 16777216
100
AcDbPoint
 10
48.66584893029402
 20
46.45772066541037
 30
0.0
  0
ENDBLK
  5
102BE
330
102BC
100
AcDbEntity
  8
0
100
AcDbBlockEnd
  0
BLOCK
  5
102C8
330
102C7
100
AcDbEntity
  8
0
100
AcDbBlockBegin
  2
*D15
 70
     1
 10
0.0
 20
0.0
 30
0.0
  3
*D15
  1

  0
LINE
  5
10870
330
102C7
100
AcDbEntity
  8
DIME
 62
     0
440
 16777216
370
    -2
100
AcDbLine
 10
45.16589424705813
 20
47.62239590349536
 30
0.0
 11
45.16589424705813
 21
45.65272066541036
 31
0.0
  0
LINE
  5
10871
330
102C7
100
AcDbEntity
  8
DIME
 62
     0
440
 16777216
370
    -2
100
AcDbLine
 10
45.41589424705813
 20
45.83272066541037
 30
0.0
 11
48.41584893029402
 21
45.83272066541037
 31
0.0
  0
SOLID
  5
10872
330
102C7
100
AcDbEntity
  8
DIME
 62
     0
440
 16777216
100
AcDbTrace
 10
45.41589424705813
 20
45.87438733207704
 30
0.0
 11
45.41589424705813
 21
45.79105399874371
 31
0.0
 12
45.16589424705813
 22
45.83272066541037
 32
0.0
 13
45.16589424705813
 23
45.83272066541037
 33
0.0
  0
SOLID
  5
10873
330
102C7
100
AcDbEntity
  8
DIME
 62
     0
440
 16777216
100
AcDbTrace
 10
48.41584893029402
 20
45.87438733207704
 30
0.0
 11
48.41584893029402
 21
45.79105399874371
 31
0.0
 12
48.66584893029402
 22
45.83272066541037
 32
0.0
 13
48.66584893029402
 23
45.83272066541037
 33
0.0
  0
MTEXT
  5
10874
330
102C7
100
AcDbEntity
  8
DIME
 62
     0
440
 16777216
100
AcDbMText
 10
46.91587158867608
 20
46.06206923294106
 30
0.0
 40
0.25
 41
0.0
 46
0.0
 71
     5
 72
     1
  1
\A1;O.D.
 73
     1
 44
1.0
  0
POINT
  5
10875
330
102C7
100
AcDbEntity
  8
DEFPOINTS
 62
     0
440
 16777216
100
AcDbPoint
 10
45.16589424705813
 20
47.99739590349536
 30
0.0
  0
POINT
  5
10876
330
102C7
100
AcDbEntity
  8
DEFPOINTS
 62
     0
440
 16777216
100
AcDbPoint
 10
48.66584893029402
 20
51.03646557356466
 30
0.0
  0
POINT
  5
10877
330
102C7
100
AcDbEntity
  8
DEFPOINTS
 62
     0
440
 16777216
100
AcDbPoint
 10
48.66584893029402
 20
45.83272066541037
 30
0.0
  0
ENDBLK
  5
102C9
330
102C7
100
AcDbEntity
  8
0
100
AcDbBlockEnd
  0
BLOCK
  5
102D3
330
102D2
100
AcDbEntity
  8
0
100
AcDbBlockBegin
  2
*D16
 70
     1
 10
0.0
 20
0.0
 30
0.0
  3
*D16
  1

  0
LINE
  5
10BB2
330
102D2
100
AcDbEntity
  8
DIME
 62
     0
440
 16777216
370
    -2
100
AcDbLine
 10
49.04084893024474
 20
51.49730066535237
 30
0.0
 11
51.22503516167068
 21
51.49726525832901
 31
0.0
  0
LINE
  5
10BB3
330
102D2
100
AcDbEntity
  8
DIME
 62
     0
440
 16777216
370
    -2
100
AcDbLine
 10
51.04503110903815
 20
51.24726817627431
 30
0.0
 11
51.04498247779456
 21
48.24730707847146
 31
0.0
  0
SOLID
  5
10BB4
330
102D2
100
AcDbEntity
  8
DIME
 62
     0
440
 16777216
100
AcDbTrace
 10
51.00336444237696
 20
51.24726885171701
 30
0.0
 11
51.08669777569934
 21
51.24726750083161
 31
0.0
 12
51.04503516169433
 22
51.49726817624146
 32
0.0
 13
51.04503516169433
 23
51.49726817624146
 33
0.0
  0
SOLID
  5
10BB5
330
102D2
100
AcDbEntity
  8
DIME
 62
     0
440
 16777216
100
AcDbTrace
 10
51.00331581113337
 20
48.24730775391416
 30
0.0
 11
51.08664914445576
 21
48.24730640302877
 31
0.0
 12
51.04497842513838
 22
47.99730707850431
 32
0.0
 13
51.04497842513838
 23
47.99730707850431
 33
0.0
  0
MTEXT
  5
10BB6
330
102D2
100
AcDbEntity
  8
DIME
 62
     0
440
 16777216
100
AcDbMText
 10
50.8156582259158
 20
49.74729134525643
 30
0.0
 40
0.25
 41
0.0
 46
0.0
 71
     5
 72
     1
  1
\A1;O.D.
 11
0.0000162106247359
 21
0.9999999998686078
 31
0.0
 73
     1
 44
1.0
  0
POINT
  5
10BB7
330
102D2
100
AcDbEntity
  8
DEFPOINTS
 62
     0
440
 16777216
100
AcDbPoint
 10
48.66584893029402
 20
51.49730674433664
 30
0.0
  0
POINT
  5
10BB8
330
102D2
100
AcDbEntity
  8
DEFPOINTS
 62
     0
440
 16777216
100
AcDbPoint
 10
45.56554795980775
 20
47.99739590349537
 30
0.0
  0
POINT
  5
10BB9
330
102D2
100
AcDbEntity
  8
DEFPOINTS
 62
     0
440
 16777216
100
AcDbPoint
 10
51.04497842513838
 20
47.99730707850431
 30
0.0
  0
ENDBLK
  5
102D4
330
102D2
100
AcDbEntity
  8
0
100
AcDbBlockEnd
  0
BLOCK
  5
102DE
330
102DD
100
AcDbEntity
  8
0
100
AcDbBlockBegin
  2
*D17
 70
     1
 10
0.0
 20
0.0
 30
0.0
  3
*D17
  1

  0
LINE
  5
10BBA
330
102DD
100
AcDbEntity
  8
DIME
 62
     0
440
 16777216
370
    -2
100
AcDbLine
 10
49.04084893024474
 20
51.49730066535237
 30
0.0
 11
50.60003516175276
 21
51.49727538996947
 31
0.0
  0
LINE
  5
10BBB
330
102DD
100
AcDbEntity
  8
DIME
 62
     0
440
 16777216
370
    -2
100
AcDbLine
 10
50.42003110912023
 20
51.24727830791477
 30
0.0
 11
50.41998247787664
 21
48.24731721011192
 31
0.0
  0
SOLID
  5
10BBC
330
102DD
100
AcDbEntity
  8
DIME
 62
     0
440
 16777216
100
AcDbTrace
 10
50.37836444245904
 20
51.24727898335747
 30
0.0
 11
50.46169777578143
 21
51.24727763247207
 31
0.0
 12
50.42003516177641
 22
51.49727830788192
 32
0.0
 13
50.42003516177641
 23
51.49727830788192
 33
0.0
  0
SOLID
  5
10BBD
330
102DD
100
AcDbEntity
  8
DIME
 62
     0
440
 16777216
100
AcDbTrace
 10
50.37831581121546
 20
48.24731788555462
 30
0.0
 11
50.46164914453783
 21
48.24731653466923
 31
0.0
 12
50.41997842522047
 22
47.99731721014476
 32
0.0
 13
50.41997842522047
 23
47.99731721014476
 33
0.0
  0
MTEXT
  5
10BBE
330
102DD
100
AcDbEntity
  8
DIME
 62
     0
440
 16777216
100
AcDbMText
 10
50.195006793528
 20
49.7473014064039
 30
0.0
 40
0.25
 41
0.0
 46
0.0
 71
     5
 72
     1
  1
\A1;F.W.
 11
0.0000162106247359
 21
0.9999999998686078
 31
0.0
 73
     1
 44
1.0
  0
POINT
  5
10BBF
330
102DD
100
AcDbEntity
  8
DEFPOINTS
 62
     0
440
 16777216
100
AcDbPoint
 10
48.66584893029402
 20
51.49730674433664
 30
0.0
  0
POINT
  5
10BC0
330
102DD
100
AcDbEntity
  8
DEFPOINTS
 62
     0
440
 16777216
100
AcDbPoint
 10
45.56554795980775
 20
47.99739590349537
 30
0.0
  0
POINT
  5
10BC1
330
102DD
100
AcDbEntity
  8
DEFPOINTS
 62
     0
440
 16777216
100
AcDbPoint
 10
50.41997842522047
 20
47.99731721014476
 30
0.0
  0
ENDBLK
  5
102DF
330
102DD
100
AcDbEntity
  8
0
100
AcDbBlockEnd
  0
BLOCK
  5
102E9
330
102E8
100
AcDbEntity
  8
0
100
AcDbBlockBegin
  2
*D18
 70
     1
 10
0.0
 20
0.0
 30
0.0
  3
*D18
  1

  0
LINE
  5
10856
330
102E8
100
AcDbEntity
  8
DIME
 62
     0
440
 16777216
370
    -2
100
AcDbLine
 10
45.54085271533086
 20
49.99739590349536
 30
0.0
 11
49.97500679213209
 21
49.99739590349535
 31
0.0
  0
LINE
  5
10857
330
102E8
100
AcDbEntity
  8
DIME
 62
     0
440
 16777216
370
    -2
100
AcDbLine
 10
49.04084893029402
 20
51.49730674433661
 30
0.0
 11
49.97500679213209
 21
51.49730674433661
 31
0.0
  0
LINE
  5
10858
330
102E8
100
AcDbEntity
  8
DIME
 62
     0
440
 16777216
370
    -2
100
AcDbLine
 10
49.79500679213209
 20
50.24739590349535
 30
0.0
 11
49.79500679213209
 21
51.24730674433661
 31
0.0
  0
SOLID
  5
10859
330
102E8
100
AcDbEntity
  8
DIME
 62
     0
440
 16777216
100
AcDbTrace
 10
49.75334012546543
 20
50.24739590349535
 30
0.0
 11
49.83667345879876
 21
50.24739590349535
 31
0.0
 12
49.79500679213209
 22
49.99739590349535
 32
0.0
 13
49.79500679213209
 23
49.99739590349535
 33
0.0
  0
SOLID
  5
1085A
330
102E8
100
AcDbEntity
  8
DIME
 62
     0
440
 16777216
100
AcDbTrace
 10
49.75334012546543
 20
51.24730674433661
 30
0.0
 11
49.83667345879876
 21
51.24730674433661
 31
0.0
 12
49.79500679213209
 22
51.49730674433661
 32
0.0
 13
49.79500679213209
 23
51.49730674433661
 33
0.0
  0
MTEXT
  5
1085B
330
102E8
100
AcDbEntity
  8
DIME
 62
     0
440
 16777216
100
AcDbMText
 10
49.56574349063139
 20
50.74735132391599
 30
0.0
 40
0.25
 41
0.0
 46
0.0
 71
     5
 72
     1
  1
\A1;1 1/2"
 11
0.0000000000000001
 21
1.0
 31
0.0
 73
     1
 44
1.0
  0
POINT
  5
1085C
330
102E8
100
AcDbEntity
  8
DEFPOINTS
 62
     0
440
 16777216
100
AcDbPoint
 10
45.16585271533086
 20
49.99739590349536
 30
0.0
  0
POINT
  5
1085D
330
102E8
100
AcDbEntity
  8
DEFPOINTS
 62
     0
440
 16777216
100
AcDbPoint
 10
48.66584893029402
 20
51.49730674433661
 30
0.0
  0
POINT
  5
1085E
330
102E8
100
AcDbEntity
  8
DEFPOINTS
 62
     0
440
 16777216
100
AcDbPoint
 10
49.79500679213209
 20
51.49730674433661
 30
0.0
  0
ENDBLK
  5
102EA
330
102E8
100
AcDbEntity
  8
0
100
AcDbBlockEnd
  0
BLOCK
  5
102F5
330
102F4
100
AcDbEntity
  8
0
100
AcDbBlockBegin
  2
*D19
 70
     1
 10
0.0
 20
0.0
 30
0.0
  3
*D19
  1

  0
LINE
  5
10BC2
330
102F4
100
AcDbEntity
  8
DIME
 62
     0
440
 16777216
370
    -2
100
AcDbLine
 10
45.5408527152816
 20
49.99738982451109
 30
0.0
 11
49.97500388667688
 21
49.99731794415041
 31
0.0
  0
LINE
  5
10BC3
330
102F4
100
AcDbEntity
  8
DIME
 62
     0
440
 16777216
370
    -2
100
AcDbLine
 10
49.79499983404435
 20
49.74732086209572
 30
0.0
 11
49.79497551821228
 21
48.24732734186521
 31
0.0
  0
SOLID
  5
10BC4
330
102F4
100
AcDbEntity
  8
DIME
 62
     0
440
 16777216
100
AcDbTrace
 10
49.75333316738316
 20
49.74732153753842
 30
0.0
 11
49.83666650070554
 21
49.74732018665302
 31
0.0
 12
49.79500388670054
 22
49.99732086206287
 32
0.0
 13
49.79500388670054
 23
49.99732086206287
 33
0.0
  0
SOLID
  5
10BC5
330
102F4
100
AcDbEntity
  8
DIME
 62
     0
440
 16777216
100
AcDbTrace
 10
49.75330885155109
 20
48.24732801730791
 30
0.0
 11
49.83664218487348
 21
48.24732666642251
 31
0.0
 12
49.79497146555611
 22
47.99732734189805
 32
0.0
 13
49.79497146555611
 23
47.99732734189805
 33
0.0
  0
MTEXT
  5
10BC6
330
102F4
100
AcDbEntity
  8
DIME
 62
     0
440
 16777216
100
AcDbMText
 10
49.56563910862776
 20
48.99732781986401
 30
0.0
 40
0.25
 41
0.0
 46
0.0
 71
     5
 72
     1
  1
\A1;DLO
 11
0.0000162106247359
 21
0.9999999998686078
 31
0.0
 73
     1
 44
1.0
  0
POINT
  5
10BC7
330
102F4
100
AcDbEntity
  8
DEFPOINTS
 62
     0
440
 16777216
100
AcDbPoint
 10
45.16585271533087
 20
49.99739590349537
 30
0.0
  0
POINT
  5
10BC8
330
102F4
100
AcDbEntity
  8
DEFPOINTS
 62
     0
440
 16777216
100
AcDbPoint
 10
45.56554795980775
 20
47.99739590349537
 30
0.0
  0
POINT
  5
10BC9
330
102F4
100
AcDbEntity
  8
DEFPOINTS
 62
     0
440
 16777216
100
AcDbPoint
 10
49.79497146555611
 20
47.99732734189805
 30
0.0
  0
ENDBLK
  5
102F6
330
102F4
100
AcDbEntity
  8
0
100
AcDbBlockEnd
  0
BLOCK
  5
10300
330
102FF
100
AcDbEntity
  8
0
100
AcDbBlockBegin
  2
*D20
 70
     1
 10
0.0
 20
0.0
 30
0.0
  3
*D20
  1

  0
LINE
  5
10822
330
102FF
100
AcDbEntity
  8
DIME
 62
     0
440
 16777216
370
    -2
100
AcDbLine
 10
45.16589424705813
 20
47.62239590349536
 30
0.0
 11
45.16589424705813
 21
46.90272066541036
 31
0.0
  0
LINE
  5
10823
330
102FF
100
AcDbEntity
  8
DIME
 62
     0
440
 16777216
370
    -2
100
AcDbLine
 10
46.66584893029402
 20
51.12230674433663
 30
0.0
 11
46.66584893029402
 21
46.90272066541036
 31
0.0
  0
LINE
  5
10824
330
102FF
100
AcDbEntity
  8
DIME
 62
     0
440
 16777216
370
    -2
100
AcDbLine
 10
45.41589424705813
 20
47.08272066541037
 30
0.0
 11
46.41584893029402
 21
47.08272066541037
 31
0.0
  0
SOLID
  5
10825
330
102FF
100
AcDbEntity
  8
DIME
 62
     0
440
 16777216
100
AcDbTrace
 10
45.41589424705813
 20
47.12438733207704
 30
0.0
 11
45.41589424705813
 21
47.04105399874371
 31
0.0
 12
45.16589424705813
 22
47.08272066541037
 32
0.0
 13
45.16589424705813
 23
47.08272066541037
 33
0.0
  0
SOLID
  5
10826
330
102FF
100
AcDbEntity
  8
DIME
 62
     0
440
 16777216
100
AcDbTrace
 10
46.41584893029402
 20
47.12438733207704
 30
0.0
 11
46.41584893029402
 21
47.04105399874371
 31
0.0
 12
46.66584893029402
 22
47.08272066541037
 32
0.0
 13
46.66584893029402
 23
47.08272066541037
 33
0.0
  0
MTEXT
  5
10827
330
102FF
100
AcDbEntity
  8
DIME
 62
     0
440
 16777216
100
AcDbMText
 10
45.91587158867608
 20
47.31198396691104
 30
0.0
 40
0.25
 41
0.0
 46
0.0
 71
     5
 72
     1
  1
\A1;1 1/2"
 73
     1
 44
1.0
  0
POINT
  5
10828
330
102FF
100
AcDbEntity
  8
DEFPOINTS
 62
     0
440
 16777216
100
AcDbPoint
 10
45.16589424705813
 20
47.99739590349536
 30
0.0
  0
POINT
  5
10829
330
102FF
100
AcDbEntity
  8
DEFPOINTS
 62
     0
440
 16777216
100
AcDbPoint
 10
46.66584893029402
 20
51.49730674433663
 30
0.0
  0
POINT
  5
1082A
330
102FF
100
AcDbEntity
  8
DEFPOINTS
 62
     0
440
 16777216
100
AcDbPoint
 10
46.66584893029402
 20
47.08272066541037
 30
0.0
  0
ENDBLK
  5
10301
330
102FF
100
AcDbEntity
  8
0
100
AcDbBlockEnd
  0
BLOCK
  5
1030C
330
1030B
100
AcDbEntity
  8
0
100
AcDbBlockBegin
  2
*D21
 70
     1
 10
0.0
 20
0.0
 30
0.0
  3
*D21
  1

  0
LINE
  5
1085F
330
1030B
100
AcDbEntity
  8
DIME
 62
     0
440
 16777216
370
    -2
100
AcDbLine
 10
49.04084893024475
 20
57.49738982451109
 30
0.0
 11
51.2250929046386
 21
57.49735441655168
 31
0.0
  0
LINE
  5
10860
330
1030B
100
AcDbEntity
  8
DIME
 62
     0
440
 16777216
370
    -2
100
AcDbLine
 10
49.04084893024474
 20
51.49730066535237
 30
0.0
 11
51.22499563944487
 21
51.49726525896969
 31
0.0
  0
LINE
  5
10861
330
1030B
100
AcDbEntity
  8
DIME
 62
     0
440
 16777216
370
    -2
100
AcDbLine
 10
51.04508885200607
 20
57.24735733449699
 30
0.0
 11
51.04499969212472
 21
51.7472681768493
 31
0.0
  0
SOLID
  5
10862
330
1030B
100
AcDbEntity
  8
DIME
 62
     0
440
 16777216
100
AcDbTrace
 10
51.00342218534488
 20
57.24735800993968
 30
0.0
 11
51.08675551866726
 21
57.24735665905429
 31
0.0
 12
51.04509290466226
 22
57.49735733446414
 32
0.0
 13
51.04509290466226
 23
57.49735733446414
 33
0.0
  0
SOLID
  5
10863
330
1030B
100
AcDbEntity
  8
DIME
 62
     0
440
 16777216
100
AcDbTrace
 10
51.00333302546353
 20
51.74726885229199
 30
0.0
 11
51.08666635878591
 21
51.7472675014066
 31
0.0
 12
51.04499563946853
 22
51.49726817688215
 32
0.0
 13
51.04499563946853
 23
51.49726817688215
 33
0.0
  0
MTEXT
  5
10864
330
1030B
100
AcDbEntity
  8
DIME
 62
     0
440
 16777216
100
AcDbMText
 10
50.81740102516488
 20
54.49731644591238
 30
0.0
 40
0.25
 41
0.0
 46
0.0
 71
     5
 72
     1
  1
\A1;6"
 11
0.0000162106247359
 21
0.999999999868608
 31
0.0
 73
     1
 44
1.0
  0
POINT
  5
10865
330
1030B
100
AcDbEntity
  8
DEFPOINTS
 62
     0
440
 16777216
100
AcDbPoint
 10
48.66584893029402
 20
57.49739590349537
 30
0.0
  0
POINT
  5
10866
330
1030B
100
AcDbEntity
  8
DEFPOINTS
 62
     0
440
 16777216
100
AcDbPoint
 10
48.66584893029402
 20
51.49730674433664
 30
0.0
  0
POINT
  5
10867
330
1030B
100
AcDbEntity
  8
DEFPOINTS
 62
     0
440
 16777216
100
AcDbPoint
 10
51.04499563946853
 20
51.49726817688215
 30
0.0
  0
ENDBLK
  5
1030D
330
1030B
100
AcDbEntity
  8
0
100
AcDbBlockEnd
  0
BLOCK
  5
105AB
330
105AA
100
AcDbEntity
  8
0
100
AcDbBlockBegin
  2
*D22
 70
     1
 10
0.0
 20
0.0
 30
0.0
  3
*D22
  1

  0
LINE
  5
10B82
330
105AA
100
AcDbEntity
  8
DIME
 62
     0
440
 16777216
370
    -2
100
AcDbLine
 10
18.20237956091738
 20
25.42364009795535
 30
0.0
 11
19.32059430699701
 21
22.72403089232421
 31
0.0
  0
LINE
  5
10B83
330
105AA
100
AcDbEntity
  8
DIME
 62
     0
440
 16777216
370
    -2
100
AcDbLine
 10
19.48268117229912
 20
22.98600006626751
 30
0.0
 11
24.67007717115785
 21
25.13468984239464
 31
0.0
  0
SOLID
  5
10B84
330
105AA
100
AcDbEntity
  8
DIME
 62
     0
440
 16777216
100
AcDbTrace
 10
19.46673602928391
 20
23.02449504678881
 30
0.0
 11
19.49862631531433
 21
22.94750508574621
 31
0.0
 12
19.2517112891713
 22
22.89032920817624
 32
0.0
 13
19.2517112891713
 23
22.89032920817624
 33
0.0
  0
SOLID
  5
10B85
330
105AA
100
AcDbEntity
  8
DIME
 62
     0
440
 16777216
100
AcDbTrace
 10
24.65413202814263
 20
25.17318482291594
 30
0.0
 11
24.68602231417306
 21
25.09619486187333
 31
0.0
 12
24.90104705428567
 22
25.2303607004859
 32
0.0
 13
24.90104705428567
 23
25.2303607004859
 33
0.0
  0
MTEXT
  5
10B86
330
105AA
100
AcDbEntity
  8
DIME
 62
     0
440
 16777216
100
AcDbMText
 10
21.98861127469783
 20
24.27223540168347
 30
0.0
 40
0.25
 41
0.0
 46
0.0
 71
     5
 72
     1
  1
\A1;OD
 11
0.9238795325112921
 21
0.3826834323650766
 31
0.0
 73
     1
 44
1.0
  0
POINT
  5
10B87
330
105AA
100
AcDbEntity
  8
DEFPOINTS
 62
     0
440
 16777216
100
AcDbPoint
 10
18.05887327378048
 20
25.77009492264708
 30
0.0
  0
POINT
  5
10B88
330
105AA
100
AcDbEntity
  8
DEFPOINTS
 62
     0
440
 16777216
100
AcDbPoint
 10
23.92913746965412
 20
27.57675800110389
 30
0.0
  0
POINT
  5
10B89
330
105AA
100
AcDbEntity
  8
DEFPOINTS
 62
     0
440
 16777216
100
AcDbPoint
 10
24.90104705428567
 20
25.2303607004859
 30
0.0
  0
ENDBLK
  5
105AC
330
105AA
100
AcDbEntity
  8
0
100
AcDbBlockEnd
  0
BLOCK
  5
105B6
330
105B5
100
AcDbEntity
  8
0
100
AcDbBlockBegin
  2
*D23
 70
     1
 10
0.0
 20
0.0
 30
0.0
  3
*D23
  1

  0
LINE
  5
10B8A
330
105B5
100
AcDbEntity
  8
DIME
 62
     0
440
 16777216
370
    -2
100
AcDbLine
 10
18.20237956091738
 20
25.42364009795535
 30
0.0
 11
19.08141713412512
 21
23.3014556668816
 31
0.0
  0
LINE
  5
10B8B
330
105B5
100
AcDbEntity
  8
DIME
 62
     0
440
 16777216
370
    -2
100
AcDbLine
 10
19.24350399942723
 20
23.56342484082491
 30
0.0
 11
24.43089999828595
 21
25.71211461695203
 31
0.0
  0
SOLID
  5
10B8C
330
105B5
100
AcDbEntity
  8
DIME
 62
     0
440
 16777216
100
AcDbTrace
 10
19.22755885641201
 20
23.60191982134621
 30
0.0
 11
19.25944914244244
 21
23.5249298603036
 31
0.0
 12
19.01253411629941
 22
23.46775398273363
 32
0.0
 13
19.01253411629941
 23
23.46775398273363
 33
0.0
  0
SOLID
  5
10B8D
330
105B5
100
AcDbEntity
  8
DIME
 62
     0
440
 16777216
100
AcDbTrace
 10
24.41495485527074
 20
25.75060959747334
 30
0.0
 11
24.44684514130117
 21
25.67361963643073
 31
0.0
 12
24.66186988141378
 22
25.8077854750433
 32
0.0
 13
24.66186988141378
 23
25.8077854750433
 33
0.0
  0
MTEXT
  5
10B8E
330
105B5
100
AcDbEntity
  8
DIME
 62
     0
440
 16777216
100
AcDbMText
 10
21.75109822657445
 20
24.8456426237035
 30
0.0
 40
0.25
 41
0.0
 46
0.0
 71
     5
 72
     1
  1
\A1;FW
 11
0.9238795325112921
 21
0.3826834323650766
 31
0.0
 73
     1
 44
1.0
  0
POINT
  5
10B8F
330
105B5
100
AcDbEntity
  8
DEFPOINTS
 62
     0
440
 16777216
100
AcDbPoint
 10
18.05887327378048
 20
25.77009492264708
 30
0.0
  0
POINT
  5
10B90
330
105B5
100
AcDbEntity
  8
DEFPOINTS
 62
     0
440
 16777216
100
AcDbPoint
 10
23.92913746965412
 20
27.57675800110389
 30
0.0
  0
POINT
  5
10B91
330
105B5
100
AcDbEntity
  8
DEFPOINTS
 62
     0
440
 16777216
100
AcDbPoint
 10
24.66186988141378
 20
25.8077854750433
 30
0.0
  0
ENDBLK
  5
105B7
330
105B5
100
AcDbEntity
  8
0
100
AcDbBlockEnd
  0
BLOCK
  5
105C1
330
105C0
100
AcDbEntity
  8
0
100
AcDbBlockBegin
  2
*D24
 70
     1
 10
0.0
 20
0.0
 30
0.0
  3
*D24
  1

  0
LINE
  5
10614
330
105C0
100
AcDbEntity
  8
DIME
 62
     0
440
 16777216
370
    -2
100
AcDbLine
 10
18.20237956091738
 20
25.42364009795535
 30
0.0
 11
18.84223996125323
 21
23.87888044143899
 31
0.0
  0
LINE
  5
10615
330
105C0
100
AcDbEntity
  8
DIME
 62
     0
440
 16777216
370
    -2
100
AcDbLine
 10
22.04841019185121
 20
26.89004864765715
 30
0.0
 11
22.64348616135446
 21
25.45340817144005
 31
0.0
  0
LINE
  5
10616
330
105C0
100
AcDbEntity
  8
DIME
 62
     0
440
 16777216
370
    -2
100
AcDbLine
 10
19.00432682655534
 20
24.14084961538229
 30
0.0
 11
22.34363326040092
 21
25.52403562920082
 31
0.0
  0
SOLID
  5
10617
330
105C0
100
AcDbEntity
  8
DIME
 62
     0
440
 16777216
100
AcDbTrace
 10
18.98838168354013
 20
24.1793445959036
 30
0.0
 11
19.02027196957055
 21
24.10235463486099
 31
0.0
 12
18.77335694342752
 22
24.04517875729103
 32
0.0
 13
18.77335694342752
 23
24.04517875729103
 33
0.0
  0
SOLID
  5
10618
330
105C0
100
AcDbEntity
  8
DIME
 62
     0
440
 16777216
100
AcDbTrace
 10
22.32768811738571
 20
25.56253060972212
 30
0.0
 11
22.35957840341613
 21
25.48554064867951
 31
0.0
 12
22.57460314352874
 22
25.61970648729208
 32
0.0
 13
22.57460314352874
 23
25.61970648729208
 33
0.0
  0
MTEXT
  5
10619
330
105C0
100
AcDbEntity
  8
DIME
 62
     0
440
 16777216
100
AcDbMText
 10
20.5862447763445
 20
25.044254294104
 30
0.0
 40
0.25
 41
0.0
 46
0.0
 71
     5
 72
     1
  1
\A1;4 1/8"
 11
0.9238795325112921
 21
0.3826834323650766
 31
0.0
 73
     1
 44
1.0
  0
POINT
  5
1061A
330
105C0
100
AcDbEntity
  8
DEFPOINTS
 62
     0
440
 16777216
100
AcDbPoint
 10
18.05887327378048
 20
25.77009492264708
 30
0.0
  0
POINT
  5
1061B
330
105C0
100
AcDbEntity
  8
DEFPOINTS
 62
     0
440
 16777216
100
AcDbPoint
 10
21.90490390471431
 20
27.23650347234888
 30
0.0
  0
POINT
  5
1061C
330
105C0
100
AcDbEntity
  8
DEFPOINTS
 62
     0
440
 16777216
100
AcDbPoint
 10
22.57460314352874
 20
25.61970648729208
 30
0.0
  0
ENDBLK
  5
105C2
330
105C0
100
AcDbEntity
  8
0
100
AcDbBlockEnd
  0
BLOCK
  5
105CD
330
105CC
100
AcDbEntity
  8
0
100
AcDbBlockBegin
  2
*D25
 70
     1
 10
0.0
 20
0.0
 30
0.0
  3
*D25
  1

  0
LINE
  5
10912
330
105CC
100
AcDbEntity
  8
DIME
 62
     0
440
 16777216
370
    -2
100
AcDbLine
 10
14.04989042003001
 20
26.89344899477704
 30
0.0
 11
13.45482472654533
 21
25.45683332706329
 31
0.0
  0
LINE
  5
10913
330
105CC
100
AcDbEntity
  8
DIME
 62
     0
440
 16777216
370
    -2
100
AcDbLine
 10
13.29273786124322
 20
25.71880250100659
 30
0.0
 11
11.90778658400857
 21
26.2924681032631
 31
0.0
  0
SOLID
  5
10914
330
105CC
100
AcDbEntity
  8
DIME
 62
     0
440
 16777216
100
AcDbTrace
 10
13.30868300425843
 20
25.7572974815279
 30
0.0
 11
13.27679271822801
 21
25.68030752048529
 31
0.0
 12
13.52370774437104
 22
25.62313164291533
 32
0.0
 13
13.52370774437104
 23
25.62313164291533
 33
0.0
  0
SOLID
  5
10915
330
105CC
100
AcDbEntity
  8
DIME
 62
     0
440
 16777216
100
AcDbTrace
 10
11.92373172702378
 20
26.3309630837844
 30
0.0
 11
11.89184144099336
 21
26.25397312274179
 31
0.0
 12
11.67681670088075
 22
26.38813896135437
 32
0.0
 13
11.67681670088075
 23
26.38813896135437
 33
0.0
  0
MTEXT
  5
10916
330
105CC
100
AcDbEntity
  8
DIME
 62
     0
440
 16777216
100
AcDbMText
 10
12.68803011965655
 20
26.21752574948724
 30
0.0
 40
0.25
 41
0.0
 46
0.0
 71
     5
 72
     1
  1
\A1;DLO
 11
0.9238795325112933
 21
-0.3826834323650737
 31
0.0
 73
     1
 44
1.0
  0
POINT
  5
10917
330
105CC
100
AcDbEntity
  8
DEFPOINTS
 62
     0
440
 16777216
100
AcDbPoint
 10
14.19339670716692
 20
27.23990381946877
 30
0.0
  0
POINT
  5
10918
330
105CC
100
AcDbEntity
  8
DEFPOINTS
 62
     0
440
 16777216
100
AcDbPoint
 10
12.17885441901913
 20
27.60016522930694
 30
0.0
  0
POINT
  5
10919
330
105CC
100
AcDbEntity
  8
DEFPOINTS
 62
     0
440
 16777216
100
AcDbPoint
 10
11.67681670088075
 20
26.38813896135437
 30
0.0
  0
ENDBLK
  5
105CE
330
105CC
100
AcDbEntity
  8
0
100
AcDbBlockEnd
  0
BLOCK
  5
105D8
330
105D7
100
AcDbEntity
  8
0
100
AcDbBlockBegin
  2
*D26
 70
     1
 10
0.0
 20
0.0
 30
0.0
  3
*D26
  1

  0
LINE
  5
1091A
330
105D7
100
AcDbEntity
  8
DIME
 62
     0
440
 16777216
370
    -2
100
AcDbLine
 10
17.91536698664357
 20
25.42364009795535
 30
0.0
 11
16.79551692948889
 21
22.72008290214809
 31
0.0
  0
LINE
  5
1091B
330
105D7
100
AcDbEntity
  8
DIME
 62
     0
440
 16777216
370
    -2
100
AcDbLine
 10
16.63343006418678
 20
22.98205207609139
 30
0.0
 11
11.42943223826478
 21
25.13761855414827
 31
0.0
  0
SOLID
  5
1091C
330
105D7
100
AcDbEntity
  8
DIME
 62
     0
440
 16777216
100
AcDbTrace
 10
16.64937520720199
 20
23.02054705661269
 30
0.0
 11
16.61748492117157
 21
22.94355709557009
 31
0.0
 12
16.8643999473146
 22
22.88638121800012
 32
0.0
 13
16.8643999473146
 23
22.88638121800012
 33
0.0
  0
SOLID
  5
1091D
330
105D7
100
AcDbEntity
  8
DIME
 62
     0
440
 16777216
100
AcDbTrace
 10
11.44537738127999
 20
25.17611353466958
 30
0.0
 11
11.41348709524957
 21
25.09912357362698
 31
0.0
 12
11.19846235513696
 22
25.23328941223955
 32
0.0
 13
11.19846235513696
 23
25.23328941223955
 33
0.0
  0
MTEXT
  5
1091E
330
105D7
100
AcDbEntity
  8
DIME
 62
     0
440
 16777216
100
AcDbMText
 10
14.11919904825644
 20
24.27172576247223
 30
0.0
 40
0.25
 41
0.0
 46
0.0
 71
     5
 72
     1
  1
\A1;OD
 11
0.9238795325112933
 21
-0.3826834323650737
 31
0.0
 73
     1
 44
1.0
  0
POINT
  5
1091F
330
105D7
100
AcDbEntity
  8
DEFPOINTS
 62
     0
440
 16777216
100
AcDbPoint
 10
18.05887327378048
 20
25.77009492264708
 30
0.0
  0
POINT
  5
10920
330
105D7
100
AcDbEntity
  8
DEFPOINTS
 62
     0
440
 16777216
100
AcDbPoint
 10
12.17885441901913
 20
27.60016522930694
 30
0.0
  0
POINT
  5
10921
330
105D7
100
AcDbEntity
  8
DEFPOINTS
 62
     0
440
 16777216
100
AcDbPoint
 10
11.19846235513696
 20
25.23328941223955
 30
0.0
  0
ENDBLK
  5
105D9
330
105D7
100
AcDbEntity
  8
0
100
AcDbBlockEnd
  0
BLOCK
  5
105E3
330
105E2
100
AcDbEntity
  8
0
100
AcDbBlockBegin
  2
*D27
 70
     1
 10
0.0
 20
0.0
 30
0.0
  3
*D27
  1

  0
LINE
  5
10922
330
105E2
100
AcDbEntity
  8
DIME
 62
     0
440
 16777216
370
    -2
100
AcDbLine
 10
17.91536698664357
 20
25.42364009795535
 30
0.0
 11
17.03469410236078
 21
23.2975076767055
 31
0.0
  0
LINE
  5
10923
330
105E2
100
AcDbEntity
  8
DIME
 62
     0
440
 16777216
370
    -2
100
AcDbLine
 10
16.87260723705867
 20
23.5594768506488
 30
0.0
 11
11.66860941113668
 21
25.71504332870569
 31
0.0
  0
SOLID
  5
10924
330
105E2
100
AcDbEntity
  8
DIME
 62
     0
440
 16777216
100
AcDbTrace
 10
16.88855238007388
 20
23.59797183117011
 30
0.0
 11
16.85666209404346
 21
23.52098187012749
 31
0.0
 12
17.10357712018649
 22
23.46380599255753
 32
0.0
 13
17.10357712018649
 23
23.46380599255753
 33
0.0
  0
SOLID
  5
10925
330
105E2
100
AcDbEntity
  8
DIME
 62
     0
440
 16777216
100
AcDbTrace
 10
11.68455455415189
 20
25.75353830922699
 30
0.0
 11
11.65266426812147
 21
25.67654834818438
 31
0.0
 12
11.43763952800885
 22
25.81071418679695
 32
0.0
 13
11.43763952800885
 23
25.81071418679695
 33
0.0
  0
MTEXT
  5
10926
330
105E2
100
AcDbEntity
  8
DIME
 62
     0
440
 16777216
100
AcDbMText
 10
14.35671209637982
 20
24.84513298449229
 30
0.0
 40
0.25
 41
0.0
 46
0.0
 71
     5
 72
     1
  1
\A1;FW
 11
0.9238795325112933
 21
-0.3826834323650737
 31
0.0
 73
     1
 44
1.0
  0
POINT
  5
10927
330
105E2
100
AcDbEntity
  8
DEFPOINTS
 62
     0
440
 16777216
100
AcDbPoint
 10
18.05887327378048
 20
25.77009492264708
 30
0.0
  0
POINT
  5
10928
330
105E2
100
AcDbEntity
  8
DEFPOINTS
 62
     0
440
 16777216
100
AcDbPoint
 10
12.17885441901913
 20
27.60016522930694
 30
0.0
  0
POINT
  5
10929
330
105E2
100
AcDbEntity
  8
DEFPOINTS
 62
     0
440
 16777216
100
AcDbPoint
 10
11.43763952800885
 20
25.81071418679695
 30
0.0
  0
ENDBLK
  5
105E4
330
105E2
100
AcDbEntity
  8
0
100
AcDbBlockEnd
  0
BLOCK
  5
105EE
330
105ED
100
AcDbEntity
  8
0
100
AcDbBlockBegin
  2
*D28
 70
     1
 10
0.0
 20
0.0
 30
0.0
  3
*D28
  1

  0
LINE
  5
10635
330
105ED
100
AcDbEntity
  8
DIME
 62
     0
440
 16777216
370
    -2
100
AcDbLine
 10
17.91536698664357
 20
25.42364009795535
 30
0.0
 11
17.27387127523266
 21
23.87493245126287
 31
0.0
  0
LINE
  5
10636
330
105ED
100
AcDbEntity
  8
DIME
 62
     0
440
 16777216
370
    -2
100
AcDbLine
 10
14.04986944635784
 20
26.89348674732607
 30
0.0
 11
13.4547934768546
 21
25.45684627110897
 31
0.0
  0
LINE
  5
10637
330
105ED
100
AcDbEntity
  8
DIME
 62
     0
440
 16777216
370
    -2
100
AcDbLine
 10
17.11178440993055
 20
24.13690162520617
 30
0.0
 11
13.75464637780813
 21
25.52747372886973
 31
0.0
  0
SOLID
  5
10638
330
105ED
100
AcDbEntity
  8
DIME
 62
     0
440
 16777216
100
AcDbTrace
 10
17.12772955294576
 20
24.17539660572748
 30
0.0
 11
17.09583926691534
 21
24.09840664468487
 31
0.0
 12
17.34275429305838
 22
24.04123076711491
 32
0.0
 13
17.34275429305838
 23
24.04123076711491
 33
0.0
  0
SOLID
  5
10639
330
105ED
100
AcDbEntity
  8
DIME
 62
     0
440
 16777216
100
AcDbTrace
 10
13.77059152082335
 20
25.56596870939104
 30
0.0
 11
13.73870123479292
 21
25.48897874834843
 31
0.0
 12
13.52367649468031
 22
25.623144586961
 32
0.0
 13
13.52367649468031
 23
25.623144586961
 33
0.0
  0
MTEXT
  5
1063A
330
105ED
100
AcDbEntity
  8
DIME
 62
     0
440
 16777216
100
AcDbMText
 10
15.52095066100297
 20
25.0439993488504
 30
0.0
 40
0.25
 41
0.0
 46
0.0
 71
     5
 72
     1
  1
\A1;4 1/8"
 11
0.9238795325112933
 21
-0.3826834323650737
 31
0.0
 73
     1
 44
1.0
  0
POINT
  5
1063B
330
105ED
100
AcDbEntity
  8
DEFPOINTS
 62
     0
440
 16777216
100
AcDbPoint
 10
18.05887327378048
 20
25.77009492264708
 30
0.0
  0
POINT
  5
1063C
330
105ED
100
AcDbEntity
  8
DEFPOINTS
 62
     0
440
 16777216
100
AcDbPoint
 10
14.19337573349474
 20
27.23994157201781
 30
0.0
  0
POINT
  5
1063D
330
105ED
100
AcDbEntity
  8
DEFPOINTS
 62
     0
440
 16777216
100
AcDbPoint
 10
13.52367649468031
 20
25.623144586961
 30
0.0
  0
ENDBLK
  5
105EF
330
105ED
100
AcDbEntity
  8
0
100
AcDbBlockEnd
  0
BLOCK
  5
105FA
330
105F9
100
AcDbEntity
  8
0
100
AcDbBlockBegin
  2
*D29
 70
     1
 10
0.0
 20
0.0
 30
0.0
  3
*D29
  1

  0
LINE
  5
10B92
330
105F9
100
AcDbEntity
  8
DIME
 62
     0
440
 16777216
370
    -2
100
AcDbLine
 10
22.04838921817904
 20
26.89001089510811
 30
0.0
 11
22.64345491166373
 21
25.45339522739435
 31
0.0
  0
LINE
  5
10B93
330
105F9
100
AcDbEntity
  8
DIME
 62
     0
440
 16777216
370
    -2
100
AcDbLine
 10
22.80554177696584
 20
25.71536440133765
 30
0.0
 11
24.19172282541406
 21
26.28953939150944
 31
0.0
  0
SOLID
  5
10B94
330
105F9
100
AcDbEntity
  8
DIME
 62
     0
440
 16777216
100
AcDbTrace
 10
22.78959663395063
 20
25.75385938185896
 30
0.0
 11
22.82148691998105
 21
25.67686942081635
 31
0.0
 12
22.57457189383802
 22
25.61969354324638
 32
0.0
 13
22.57457189383802
 23
25.61969354324638
 33
0.0
  0
SOLID
  5
10B95
330
105F9
100
AcDbEntity
  8
DIME
 62
     0
440
 16777216
100
AcDbTrace
 10
24.17577768239885
 20
26.32803437203075
 30
0.0
 11
24.20766796842927
 21
26.25104441098814
 31
0.0
 12
24.42269270854188
 22
26.38521024960071
 32
0.0
 13
24.42269270854188
 23
26.38521024960071
 33
0.0
  0
MTEXT
  5
10B96
330
105F9
100
AcDbEntity
  8
DIME
 62
     0
440
 16777216
100
AcDbMText
 10
23.41086440415929
 20
26.21434234377594
 30
0.0
 40
0.25
 41
0.0
 46
0.0
 71
     5
 72
     1
  1
\A1;DLO
 11
0.9238795325112921
 21
0.3826834323650766
 31
0.0
 73
     1
 44
1.0
  0
POINT
  5
10B97
330
105F9
100
AcDbEntity
  8
DEFPOINTS
 62
     0
440
 16777216
100
AcDbPoint
 10
21.90488293104213
 20
27.23646571979985
 30
0.0
  0
POINT
  5
10B98
330
105F9
100
AcDbEntity
  8
DEFPOINTS
 62
     0
440
 16777216
100
AcDbPoint
 10
23.92913746965412
 20
27.57675800110389
 30
0.0
  0
POINT
  5
10B99
330
105F9
100
AcDbEntity
  8
DEFPOINTS
 62
     0
440
 16777216
100
AcDbPoint
 10
24.42269270854188
 20
26.38521024960071
 30
0.0
  0
ENDBLK
  5
105FB
330
105F9
100
AcDbEntity
  8
0
100
AcDbBlockEnd
  0
BLOCK
  5
10797
330
10796
100
AcDbEntity
  8
0
100
AcDbBlockBegin
  2
B027074-M
 70
     0
 10
0.0
 20
0.0
 30
0.0
  3
B027074-M
  1

  0
LWPOLYLINE
  5
10798
330
10796
100
AcDbEntity
  8
0
100
AcDbPolyline
 90
       31
 70
     1
 43
0.0
 10
0.0615385958537953
 20
0.1444979718355525
 10
0.0347220693148596
 20
0.1493722724335179
 10
0.0688521934359927
 20
0.2566068701152685
 10
0.1297988440960616
 20
0.2614811689939573
 10
0.205353714454843
 20
0.2585000000000051
 10
0.1952631728965243
 20
0.2895095426212411
 42
0.1257100272134179
 10
-0.0367282291255313
 20
0.3412518702148949
 42
-0.2260837189018228
 10
-0.190313789557137
 20
0.3909697288589945
 10
-0.2858690992168286
 20
0.5019103470193476
 42
0.6449762263124317
 10
-0.3118033912350138
 20
0.4901690045456872
 10
-0.3102236542069603
 20
0.3609320689163035
 42
0.1518691569180708
 10
-0.2938708776106291
 20
0.3164969145670437
 10
-0.2553676893153789
 20
0.256571135298567
 42
-0.0293454671788447
 10
-0.2379728001124799
 20
0.2046884921059461
 10
-0.2207425105289544
 20
0.0828944822689027
 42
-0.6538117075652882
 10
-0.2409833214318129
 20
0.0759077453035388
 10
-0.285075068654139
 20
0.2411566627934628
 42
0.8886355728344963
 10
-0.3102236542069601
 20
0.2390952318940735
 10
-0.3102236542069602
 20
0.1048496115014148
 42
0.0642046489364144
 10
-0.2677911922975344
 20
-0.0837666452058693
 42
0.6896355001773956
 10
-0.1651824619094271
 20
-0.0837666452058707
 42
0.0703560868358924
 10
-0.1239500000000007
 20
0.1048496115014146
 10
-0.1239500000000006
 20
0.2005524218350488
 10
-0.0506032420234126
 20
0.2005524218350488
 10
-0.0286624472059418
 20
0.1469351221345353
 10
-0.0676683051194189
 20
0.1420608232558463
 10
-0.0335381789274067
 20
0.1055035739289353
 10
-0.0652304392586864
 20
0.0835692246766441
 10
-0.0042837865277385
 20
0.029951926695407
 10
0.0517871324108659
 20
0.0957549744522811
 10
0.0274084717326622
 20
0.1055035739289353
  0
ENDBLK
  5
10799
330
10796
100
AcDbEntity
  8
0
100
AcDbBlockEnd
  0
BLOCK
  5
107BA
330
1079A
100
AcDbEntity
  8
0
100
AcDbBlockBegin
  2
gt100
 70
     0
 10
0.0
 20
0.0
 30
0.0
  3
gt100
  1

  0
LINE
  5
10B38
330
1079A
100
AcDbEntity
  8
0
100
AcDbLine
 10
-0.1165000000000163
 20
-0.2909750000000013
 30
0.0
 11
2.258499999999997
 21
-0.2909750000000013
 31
0.0
  0
LINE
  5
10B39
330
1079A
100
AcDbEntity
  8
0
100
AcDbLine
 10
-0.1165000000000163
 20
-0.5409750000000014
 30
0.0
 11
2.258499999999997
 21
-0.5409750000000014
 31
0.0
  0
LINE
  5
10B3A
330
1079A
100
AcDbEntity
  8
0
100
AcDbLine
 10
-0.1165000000000163
 20
-1.040975000000001
 30
0.0
 11
2.258499999999997
 21
-1.040975000000001
 31
0.0
  0
LINE
  5
10B3B
330
1079A
100
AcDbEntity
  8
0
100
AcDbLine
 10
-0.1165000000000163
 20
-1.290975000000001
 30
0.0
 11
2.258499999999997
 21
-1.290975000000001
 31
0.0
  0
LINE
  5
10B3C
330
1079A
100
AcDbEntity
  8
0
100
AcDbLine
 10
0.2584999999999979
 20
0.2263287144548425
 30
0.0
 11
2.258499999999997
 21
0.2263287144548407
 31
0.0
  0
LINE
  5
10B3D
330
1079A
100
AcDbEntity
  8
0
100
AcDbLine
 10
0.2584999999999979
 20
-1.808278714454843
 30
0.0
 11
2.258499999999997
 21
-1.808278714454843
 31
0.0
  0
LINE
  5
10B3E
330
1079A
100
AcDbEntity
  8
0
100
AcDbLine
 10
-0.1165000000000163
 20
-0.2909750000000013
 30
0.0
 11
-0.1165000000000163
 21
-0.5409750000000014
 31
0.0
  0
LINE
  5
10B3F
330
1079A
100
AcDbEntity
  8
0
100
AcDbLine
 10
-0.1165000000000163
 20
-1.040975000000001
 30
0.0
 11
-0.1165000000000163
 21
-1.290975000000001
 31
0.0
  0
INSERT
  5
10B40
330
1079A
100
AcDbEntity
  8
0
100
AcDbBlockReference
  2
B027074-M
 10
-0.0000000000000142
 20
-1.602925
 30
0.0
 50
270.0
  0
INSERT
  5
10B41
330
1079A
100
AcDbEntity
  8
0
100
AcDbBlockReference
  2
B027074-M
 10
-0.0000000000000142
 20
0.020975
 30
0.0
 41
-1.0
 50
270.0
  0
LINE
  5
10B42
330
1079A
100
AcDbEntity
  8
0
100
AcDbLine
 10
0.2897499999999979
 20
-0.5722249999999996
 30
0.0
 11
0.2897499999999979
 21
-1.009725000000001
 31
0.0
  0
LINE
  5
10B43
330
1079A
100
AcDbEntity
  8
0
100
AcDbLine
 10
-0.0227500000000021
 20
-0.6164191738241592
 30
0.0
 11
-0.0227500000000163
 21
-0.9655308261758417
 31
0.0
  0
ARC
  5
10B44
330
1079A
100
AcDbEntity
  8
0
100
AcDbCircle
 10
0.008499999999998
 20
-0.6164191738241592
 30
0.0
 40
0.03125
100
AcDbArc
 50
135.0000000000003
 51
180.0
  0
LINE
  5
10B45
330
1079A
100
AcDbEntity
  8
0
100
AcDbLine
 10
0.008499999999998
 20
-0.6164191738241592
 30
0.0
 11
0.0084999999999837
 21
-0.9655308261758417
 31
0.0
  0
ARC
  5
10B46
330
1079A
100
AcDbEntity
  8
0
100
AcDbCircle
 10
0.2584999999999979
 20
-1.009725000000001
 30
0.0
 40
0.03125
100
AcDbArc
 50
270.0
 51
0.0
  0
LINE
  5
10B47
330
1079A
100
AcDbEntity
  8
0
100
AcDbLine
 10
0.2584999999999979
 20
-0.5722249999999996
 30
0.0
 11
0.2584999999999837
 21
-1.009725000000001
 31
0.0
  0
ARC
  5
10B48
330
1079A
100
AcDbEntity
  8
0
100
AcDbCircle
 10
0.2584999999999979
 20
-0.5722249999999996
 30
0.0
 40
0.03125
100
AcDbArc
 50
0.0
 51
90.0
  0
LINE
  5
10B49
330
1079A
100
AcDbEntity
  8
0
100
AcDbLine
 10
0.0305970869120671
 20
-0.5501279130879216
 30
0.0
 11
-0.0135970869120854
 21
-0.5943220869120794
 31
0.0
  0
ARC
  5
10B4A
330
1079A
100
AcDbEntity
  8
0
100
AcDbCircle
 10
0.0526941738241504
 20
-0.5722249999999996
 30
0.0
 40
0.03125
100
AcDbArc
 50
90.0
 51
135.0000000000003
  0
LINE
  5
10B4B
330
1079A
100
AcDbEntity
  8
0
100
AcDbLine
 10
0.0526941738241504
 20
-0.5722249999999996
 30
0.0
 11
0.008499999999998
 21
-0.6164191738241592
 31
0.0
  0
ARC
  5
10B4C
330
1079A
100
AcDbEntity
  8
0
100
AcDbCircle
 10
0.008499999999998
 20
-0.9655308261758417
 30
0.0
 40
0.03125
100
AcDbArc
 50
180.0
 51
224.9999999999996
  0
LINE
  5
10B4D
330
1079A
100
AcDbEntity
  8
0
100
AcDbLine
 10
0.0305970869120671
 20
-1.031822086912081
 30
0.0
 11
-0.0135970869120854
 21
-0.9876279130879215
 31
0.0
  0
ARC
  5
10B4E
330
1079A
100
AcDbEntity
  8
0
100
AcDbCircle
 10
0.0526941738241504
 20
-1.009725000000001
 30
0.0
 40
0.03125
100
AcDbArc
 50
224.9999999999996
 51
270.0
  0
LINE
  5
10B4F
330
1079A
100
AcDbEntity
  8
0
100
AcDbLine
 10
0.0526941738241504
 20
-1.009725000000001
 30
0.0
 11
0.008499999999998
 21
-0.9655308261758417
 31
0.0
  0
LINE
  5
10B50
330
1079A
100
AcDbEntity
  8
0
100
AcDbLine
 10
0.2584999999999979
 20
-0.5409749999999996
 30
0.0
 11
0.0526941738241504
 21
-0.5409749999999996
 31
0.0
  0
LINE
  5
10B51
330
1079A
100
AcDbEntity
  8
0
100
AcDbLine
 10
0.2584999999999979
 20
-0.5722249999999996
 30
0.0
 11
0.0526941738241504
 21
-0.5722249999999996
 31
0.0
  0
LINE
  5
10B52
330
1079A
100
AcDbEntity
  8
0
100
AcDbLine
 10
0.2584999999999979
 20
-1.040975000000001
 30
0.0
 11
0.0526941738241504
 21
-1.040975000000001
 31
0.0
  0
LINE
  5
10B53
330
1079A
100
AcDbEntity
  8
0
100
AcDbLine
 10
0.2584999999999837
 20
-1.009725000000001
 30
0.0
 11
0.0526941738241504
 21
-1.009725000000001
 31
0.0
  0
ARC
  5
10B54
330
1079A
100
AcDbEntity
  8
0
100
AcDbCircle
 10
-1.100875000000016
 20
-0.7909749999999996
 30
0.0
 40
1.015625000000002
100
AcDbArc
 50
345.7499673021963
 51
14.25003269780335
  0
ENDBLK
  5
107BB
330
1079A
100
AcDbEntity
  8
0
100
AcDbBlockEnd
  0
BLOCK
  5
10ABD
330
10ABC
100
AcDbEntity
  8
0
100
AcDbBlockBegin
  2
*D32
 70
     1
 10
0.0
 20
0.0
 30
0.0
  3
*D32
  1

  0
LINE
  5
10B69
330
10ABC
100
AcDbEntity
  8
DIME
 62
     0
440
 16777216
370
    -2
100
AcDbLine
 10
43.86900874034707
 20
25.30926072265547
 30
0.0
 11
44.70896686322823
 21
23.2813294493884
 31
0.0
  0
LINE
  5
10B6A
330
10ABC
100
AcDbEntity
  8
DIME
 62
     0
440
 16777216
370
    -2
100
AcDbLine
 10
44.4091151072293
 20
23.35196176794274
 30
0.0
 11
41.41900661400272
 21
22.11347506462591
 31
0.0
  0
SOLID
  5
10B6B
330
10ABC
100
AcDbEntity
  8
DIME
 62
     0
440
 16777216
100
AcDbTrace
 10
44.39317058824387
 20
23.39045700693971
 30
0.0
 11
44.42505962621473
 21
23.31346652894576
 31
0.0
 12
44.64008654121116
 22
23.44762888185534
 32
0.0
 13
44.64008654121116
 23
23.44762888185534
 33
0.0
  0
SOLID
  5
10B6C
330
10ABC
100
AcDbEntity
  8
DIME
 62
     0
440
 16777216
100
AcDbTrace
 10
41.40306209501729
 20
22.15197030362289
 30
0.0
 11
41.43495113298815
 21
22.07497982562894
 31
0.0
 12
41.18803518002088
 22
22.01780795071331
 32
0.0
 13
41.18803518002088
 23
22.01780795071331
 33
0.0
  0
MTEXT
  5
10B6D
330
10ABC
100
AcDbEntity
  8
DIME
 62
     0
440
 16777216
100
AcDbMText
 10
42.8262963984734
 20
22.94461028638131
 30
0.0
 40
0.25
 41
0.0
 46
0.0
 71
     5
 72
     1
  1
\A1;O.D.
 11
0.9238857359274106
 21
0.3826684556504059
 31
0.0
 73
     1
 44
1.0
  0
POINT
  5
10B6E
330
10ABC
100
AcDbEntity
  8
DEFPOINTS
 62
     0
440
 16777216
100
AcDbPoint
 10
43.72550806947816
 20
25.65571787362825
 30
0.0
  0
POINT
  5
10B6F
330
10ABC
100
AcDbEntity
  8
DEFPOINTS
 62
     0
440
 16777216
100
AcDbPoint
 10
40.47850056680416
 20
23.73085458055248
 30
0.0
  0
POINT
  5
10B70
330
10ABC
100
AcDbEntity
  8
DEFPOINTS
 62
     0
440
 16777216
100
AcDbPoint
 10
41.18803518002088
 20
22.01780795071331
 30
0.0
  0
ENDBLK
  5
10ABE
330
10ABC
100
AcDbEntity
  8
0
100
AcDbBlockEnd
  0
BLOCK
  5
10AC8
330
10AC7
100
AcDbEntity
  8
0
100
AcDbBlockBegin
  2
*D33
 70
     1
 10
0.0
 20
0.0
 30
0.0
  3
*D33
  1

  0
LINE
  5
10B71
330
10AC7
100
AcDbEntity
  8
DIME
 62
     0
440
 16777216
370
    -2
100
AcDbLine
 10
43.86900874034707
 20
25.30926072265547
 30
0.0
 11
44.4697984244783
 21
23.85875961323488
 31
0.0
  0
LINE
  5
10B72
330
10AC7
100
AcDbEntity
  8
DIME
 62
     0
440
 16777216
370
    -2
100
AcDbLine
 10
44.16994666847936
 20
23.92939193178922
 30
0.0
 11
41.17983817525279
 21
22.69090522847239
 31
0.0
  0
SOLID
  5
10B73
330
10AC7
100
AcDbEntity
  8
DIME
 62
     0
440
 16777216
100
AcDbTrace
 10
44.15400214949393
 20
23.96788717078619
 30
0.0
 11
44.1858911874648
 21
23.89089669279224
 31
0.0
 12
44.40091810246122
 22
24.02505904570182
 32
0.0
 13
44.40091810246122
 23
24.02505904570182
 33
0.0
  0
SOLID
  5
10B74
330
10AC7
100
AcDbEntity
  8
DIME
 62
     0
440
 16777216
100
AcDbTrace
 10
41.16389365626735
 20
22.72940046746937
 30
0.0
 11
41.19578269423821
 21
22.65240998947542
 31
0.0
 12
40.94886674127094
 22
22.59523811455979
 32
0.0
 13
40.94886674127094
 23
22.59523811455979
 33
0.0
  0
MTEXT
  5
10B75
330
10AC7
100
AcDbEntity
  8
DIME
 62
     0
440
 16777216
100
AcDbMText
 10
42.58879201934473
 20
23.51802287071447
 30
0.0
 40
0.25
 41
0.0
 46
0.0
 71
     5
 72
     1
  1
\A1;F.W.
 11
0.9238857359274106
 21
0.3826684556504059
 31
0.0
 73
     1
 44
1.0
  0
POINT
  5
10B76
330
10AC7
100
AcDbEntity
  8
DEFPOINTS
 62
     0
440
 16777216
100
AcDbPoint
 10
43.72550806947816
 20
25.65571787362825
 30
0.0
  0
POINT
  5
10B77
330
10AC7
100
AcDbEntity
  8
DEFPOINTS
 62
     0
440
 16777216
100
AcDbPoint
 10
40.47850056680416
 20
23.73085458055248
 30
0.0
  0
POINT
  5
10B78
330
10AC7
100
AcDbEntity
  8
DEFPOINTS
 62
     0
440
 16777216
100
AcDbPoint
 10
40.94886674127094
 20
22.59523811455979
 30
0.0
  0
ENDBLK
  5
10AC9
330
10AC7
100
AcDbEntity
  8
0
100
AcDbBlockEnd
  0
BLOCK
  5
10AD3
330
10AD2
100
AcDbEntity
  8
0
100
AcDbBlockBegin
  2
*D34
 70
     1
 10
0.0
 20
0.0
 30
0.0
  3
*D34
  1

  0
LINE
  5
10AF9
330
10AD2
100
AcDbEntity
  8
DIME
 62
     0
440
 16777216
370
    -2
100
AcDbLine
 10
42.30721467426456
 20
24.54516302937229
 30
0.0
 11
42.62740948802426
 21
23.77214436739211
 31
0.0
  0
LINE
  5
10AFA
330
10AD2
100
AcDbEntity
  8
DIME
 62
     0
440
 16777216
370
    -2
100
AcDbLine
 10
43.86901435661507
 20
25.30926304893653
 30
0.0
 11
44.23063905499136
 21
24.43622379762743
 31
0.0
  0
LINE
  5
10AFB
330
10AD2
100
AcDbEntity
  8
DIME
 62
     0
440
 16777216
370
    -2
100
AcDbLine
 10
42.78949635332637
 20
24.03411354133542
 30
0.0
 11
43.93078615403782
 21
24.50685125538819
 31
0.0
  0
SOLID
  5
10AFC
330
10AD2
100
AcDbEntity
  8
DIME
 62
     0
440
 16777216
100
AcDbTrace
 10
42.77355121031115
 20
24.07260852185672
 30
0.0
 11
42.80544149634158
 21
23.99561856081411
 31
0.0
 12
42.55852647019854
 22
23.93844268324414
 32
0.0
 13
42.55852647019854
 23
23.93844268324414
 33
0.0
  0
SOLID
  5
10AFD
330
10AD2
100
AcDbEntity
  8
DIME
 62
     0
440
 16777216
100
AcDbTrace
 10
43.9148410110226
 20
24.54534623590949
 30
0.0
 11
43.94673129705303
 21
24.46835627486688
 31
0.0
 12
44.16175603716564
 22
24.60252211347946
 32
0.0
 13
44.16175603716564
 23
24.60252211347946
 33
0.0
  0
MTEXT
  5
10AFE
330
10AD2
100
AcDbEntity
  8
DIME
 62
     0
440
 16777216
100
AcDbMText
 10
43.27237335665143
 20
24.48237284571419
 30
0.0
 40
0.25
 41
0.0
 46
0.0
 71
     5
 72
     1
  1
\A1;1 3/4"
 11
0.923879532511286
 21
0.3826834323650914
 31
0.0
 73
     1
 44
1.0
  0
POINT
  5
10AFF
330
10AD2
100
AcDbEntity
  8
DEFPOINTS
 62
     0
440
 16777216
100
AcDbPoint
 10
42.16370838712765
 20
24.89161785406402
 30
0.0
  0
POINT
  5
10B00
330
10AD2
100
AcDbEntity
  8
DEFPOINTS
 62
     0
440
 16777216
100
AcDbPoint
 10
43.72550806947816
 20
25.65571787362826
 30
0.0
  0
POINT
  5
10B01
330
10AD2
100
AcDbEntity
  8
DEFPOINTS
 62
     0
440
 16777216
100
AcDbPoint
 10
44.16175603716564
 20
24.60252211347946
 30
0.0
  0
ENDBLK
  5
10AD4
330
10AD2
100
AcDbEntity
  8
0
100
AcDbBlockEnd
  0
BLOCK
  5
10ADF
330
10ADE
100
AcDbEntity
  8
0
100
AcDbBlockBegin
  2
*D35
 70
     1
 10
0.0
 20
0.0
 30
0.0
  3
*D35
  1

  0
LINE
  5
10B79
330
10ADE
100
AcDbEntity
  8
DIME
 62
     0
440
 16777216
370
    -2
100
AcDbLine
 10
42.30720905799654
 20
24.54516070309124
 30
0.0
 11
42.6273886122975
 21
23.7721434376585
 31
0.0
  0
LINE
  5
10B7A
330
10ADE
100
AcDbEntity
  8
DIME
 62
     0
440
 16777216
370
    -2
100
AcDbLine
 10
42.32753685629858
 20
23.84277575621283
 30
0.0
 11
40.9406670733531
 21
23.26834182202592
 31
0.0
  0
SOLID
  5
10B7B
330
10ADE
100
AcDbEntity
  8
DIME
 62
     0
440
 16777216
100
AcDbTrace
 10
42.31159233731314
 20
23.88127099520981
 30
0.0
 11
42.34348137528401
 21
23.80428051721586
 31
0.0
 12
42.55850829028043
 22
23.93844287012544
 32
0.0
 13
42.55850829028043
 23
23.93844287012544
 33
0.0
  0
SOLID
  5
10B7C
330
10ADE
100
AcDbEntity
  8
DIME
 62
     0
440
 16777216
100
AcDbTrace
 10
40.92472255436766
 20
23.3068370610229
 30
0.0
 11
40.95661159233854
 21
23.22984658302894
 31
0.0
 12
40.70969563937125
 22
23.17267470811332
 32
0.0
 13
40.70969563937125
 23
23.17267470811332
 33
0.0
  0
MTEXT
  5
10B7D
330
10ADE
100
AcDbEntity
  8
DIME
 62
     0
440
 16777216
100
AcDbMText
 10
41.54633750268323
 20
23.76745065921637
 30
0.0
 40
0.25
 41
0.0
 46
0.0
 71
     5
 72
     1
  1
\A1;DLO
 11
0.9238857359274106
 21
0.3826684556504059
 31
0.0
 73
     1
 44
1.0
  0
POINT
  5
10B7E
330
10ADE
100
AcDbEntity
  8
DEFPOINTS
 62
     0
440
 16777216
100
AcDbPoint
 10
42.16370838712764
 20
24.89161785406402
 30
0.0
  0
POINT
  5
10B7F
330
10ADE
100
AcDbEntity
  8
DEFPOINTS
 62
     0
440
 16777216
100
AcDbPoint
 10
40.47850056680416
 20
23.73085458055248
 30
0.0
  0
POINT
  5
10B80
330
10ADE
100
AcDbEntity
  8
DEFPOINTS
 62
     0
440
 16777216
100
AcDbPoint
 10
40.70969563937125
 20
23.17267470811332
 30
0.0
  0
ENDBLK
  5
10AE0
330
10ADE
100
AcDbEntity
  8
0
100
AcDbBlockEnd
  0
BLOCK
  5
10CB4
330
10CB3
100
AcDbEntity
  8
0
100
AcDbBlockBegin
  2
*D36
 70
     1
 10
0.0
 20
0.0
 30
0.0
  3
*D36
  1

  0
LINE
  5
10D10
330
10CB3
100
AcDbEntity
  8
DIME
 62
     0
440
 16777216
370
    -2
100
AcDbLine
 10
67.21157727997881
 20
51.12230674433662
 30
0.0
 11
67.21157727997881
 21
49.68846219475636
 31
0.0
  0
LINE
  5
10D11
330
10CB3
100
AcDbEntity
  8
DIME
 62
     0
440
 16777216
370
    -2
100
AcDbLine
 10
66.96157727997881
 20
49.86846219475636
 30
0.0
 11
65.46157727997881
 21
49.86846219475636
 31
0.0
  0
SOLID
  5
10D12
330
10CB3
100
AcDbEntity
  8
DIME
 62
     0
440
 16777216
100
AcDbTrace
 10
66.96157727997881
 20
49.91012886142303
 30
0.0
 11
66.96157727997881
 21
49.8267955280897
 31
0.0
 12
67.21157727997881
 22
49.86846219475636
 32
0.0
 13
67.21157727997881
 23
49.86846219475636
 33
0.0
  0
SOLID
  5
10D13
330
10CB3
100
AcDbEntity
  8
DIME
 62
     0
440
 16777216
100
AcDbTrace
 10
65.46157727997881
 20
49.91012886142303
 30
0.0
 11
65.46157727997881
 21
49.8267955280897
 31
0.0
 12
65.21157727997881
 22
49.86846219475636
 32
0.0
 13
65.21157727997881
 23
49.86846219475636
 33
0.0
  0
MTEXT
  5
10D14
330
10CB3
100
AcDbEntity
  8
DIME
 62
     0
440
 16777216
100
AcDbMText
 10
66.21157727997881
 20
50.09781076228705
 30
0.0
 40
0.25
 41
0.0
 46
0.0
 71
     5
 72
     1
  1
\A1;DLO
 73
     1
 44
1.0
  0
POINT
  5
10D15
330
10CB3
100
AcDbEntity
  8
DEFPOINTS
 62
     0
440
 16777216
100
AcDbPoint
 10
67.21157727997881
 20
51.49730674433662
 30
0.0
  0
POINT
  5
10D16
330
10CB3
100
AcDbEntity
  8
DEFPOINTS
 62
     0
440
 16777216
100
AcDbPoint
 10
65.21157727997881
 20
51.24612978829802
 30
0.0
  0
POINT
  5
10D17
330
10CB3
100
AcDbEntity
  8
DEFPOINTS
 62
     0
440
 16777216
100
AcDbPoint
 10
65.21157727997881
 20
49.86846219475636
 30
0.0
  0
ENDBLK
  5
10CB5
330
10CB3
100
AcDbEntity
  8
0
100
AcDbBlockEnd
  0
BLOCK
  5
10CBF
330
10CBE
100
AcDbEntity
  8
0
100
AcDbBlockBegin
  2
*D37
 70
     1
 10
0.0
 20
0.0
 30
0.0
  3
*D37
  1

  0
LINE
  5
10D18
330
10CBE
100
AcDbEntity
  8
DIME
 62
     0
440
 16777216
370
    -2
100
AcDbLine
 10
64.83657727997881
 20
57.49739590349535
 30
0.0
 11
62.65235235005416
 21
57.49739590349535
 31
0.0
  0
LINE
  5
10D19
330
10CBE
100
AcDbEntity
  8
DIME
 62
     0
440
 16777216
370
    -2
100
AcDbLine
 10
64.83657727997881
 20
51.49730674433662
 30
0.0
 11
62.65235235005416
 21
51.49730674433662
 31
0.0
  0
LINE
  5
10D1A
330
10CBE
100
AcDbEntity
  8
DIME
 62
     0
440
 16777216
370
    -2
100
AcDbLine
 10
62.83235235005417
 20
57.24739590349535
 30
0.0
 11
62.83235235005417
 21
51.74730674433662
 31
0.0
  0
SOLID
  5
10D1B
330
10CBE
100
AcDbEntity
  8
DIME
 62
     0
440
 16777216
100
AcDbTrace
 10
62.7906856833875
 20
57.24739590349535
 30
0.0
 11
62.87401901672083
 21
57.24739590349535
 31
0.0
 12
62.83235235005417
 22
57.49739590349535
 32
0.0
 13
62.83235235005417
 23
57.49739590349535
 33
0.0
  0
SOLID
  5
10D1C
330
10CBE
100
AcDbEntity
  8
DIME
 62
     0
440
 16777216
100
AcDbTrace
 10
62.7906856833875
 20
51.74730674433662
 30
0.0
 11
62.87401901672083
 21
51.74730674433662
 31
0.0
 12
62.83235235005417
 22
51.49730674433662
 32
0.0
 13
62.83235235005417
 23
51.49730674433662
 33
0.0
  0
MTEXT
  5
10D1D
330
10CBE
100
AcDbEntity
  8
DIME
 62
     0
440
 16777216
100
AcDbMText
 10
62.60470910312373
 20
54.497351323916
 30
0.0
 40
0.25
 41
0.0
 46
0.0
 71
     5
 72
     1
  1
\A1;6"
 11
0.0000000000000001
 21
1.0
 31
0.0
 73
     1
 44
1.0
  0
POINT
  5
10D1E
330
10CBE
100
AcDbEntity
  8
DEFPOINTS
 62
     0
440
 16777216
100
AcDbPoint
 10
65.21157727997881
 20
57.49739590349535
 30
0.0
  0
POINT
  5
10D1F
330
10CBE
100
AcDbEntity
  8
DEFPOINTS
 62
     0
440
 16777216
100
AcDbPoint
 10
65.21157727997881
 20
51.49730674433662
 30
0.0
  0
POINT
  5
10D20
330
10CBE
100
AcDbEntity
  8
DEFPOINTS
 62
     0
440
 16777216
100
AcDbPoint
 10
62.83235235005417
 20
51.49730674433662
 30
0.0
  0
ENDBLK
  5
10CC0
330
10CBE
100
AcDbEntity
  8
0
100
AcDbBlockEnd
  0
BLOCK
  5
10D2E
330
10D2D
100
AcDbEntity
  8
0
100
AcDbBlockBegin
  2
*D38
 70
     1
 10
0.0
 20
0.0
 30
0.0
  3
*D38
  1

  0
LINE
  5
10D40
330
10D2D
100
AcDbEntity
  8
DIME
 62
     0
440
 16777216
370
    -2
100
AcDbLine
 10
74.34843526296273
 20
51.12230674433662
 30
0.0
 11
74.34843526296273
 21
49.68846219475636
 31
0.0
  0
LINE
  5
10D41
330
10D2D
100
AcDbEntity
  8
DIME
 62
     0
440
 16777216
370
    -2
100
AcDbLine
 10
74.59843526296272
 20
49.86846219475636
 30
0.0
 11
76.09843526296272
 21
49.86846219475636
 31
0.0
  0
SOLID
  5
10D42
330
10D2D
100
AcDbEntity
  8
DIME
 62
     0
440
 16777216
100
AcDbTrace
 10
74.59843526296272
 20
49.91012886142303
 30
0.0
 11
74.59843526296272
 21
49.8267955280897
 31
0.0
 12
74.34843526296273
 22
49.86846219475636
 32
0.0
 13
74.34843526296273
 23
49.86846219475636
 33
0.0
  0
SOLID
  5
10D43
330
10D2D
100
AcDbEntity
  8
DIME
 62
     0
440
 16777216
100
AcDbTrace
 10
76.09843526296272
 20
49.91012886142303
 30
0.0
 11
76.09843526296272
 21
49.8267955280897
 31
0.0
 12
76.34843526296272
 22
49.86846219475636
 32
0.0
 13
76.34843526296272
 23
49.86846219475636
 33
0.0
  0
MTEXT
  5
10D44
330
10D2D
100
AcDbEntity
  8
DIME
 62
     0
440
 16777216
100
AcDbMText
 10
75.34843526296272
 20
50.09781076228705
 30
0.0
 40
0.25
 41
0.0
 46
0.0
 71
     5
 72
     1
  1
\A1;DLO
 73
     1
 44
1.0
  0
POINT
  5
10D45
330
10D2D
100
AcDbEntity
  8
DEFPOINTS
 62
     0
440
 16777216
100
AcDbPoint
 10
74.34843526296273
 20
51.49730674433662
 30
0.0
  0
POINT
  5
10D46
330
10D2D
100
AcDbEntity
  8
DEFPOINTS
 62
     0
440
 16777216
100
AcDbPoint
 10
76.34843526296272
 20
51.24612978829802
 30
0.0
  0
POINT
  5
10D47
330
10D2D
100
AcDbEntity
  8
DEFPOINTS
 62
     0
440
 16777216
100
AcDbPoint
 10
76.34843526296272
 20
49.86846219475636
 30
0.0
  0
ENDBLK
  5
10D2F
330
10D2D
100
AcDbEntity
  8
0
100
AcDbBlockEnd
  0
BLOCK
  5
11246
330
1123A
100
AcDbEntity
  8
0
100
AcDbBlockBegin
  2
Kawneer Logo English
 70
     0
 10
0.0
 20
0.0
 30
0.0
  3
Kawneer Logo English
  1

  0
HATCH
  5
116C0
330
1123A
100
AcDbEntity
  8
Kawneer Logo-English
100
AcDbHatch
 10
0.0
 20
0.0
 30
0.0
210
0.0
220
0.0
230
1.0
  2
SOLID
 70
     1
 71
     0
 91
        1
 92
        1
 93
       81
 72
     1
 10
0.2706169776412204
 20
0.0336337282279411
 11
0.2687512969786691
 21
0.0350329887248546
 72
     1
 10
0.2687512969786696
 20
0.0350329887248547
 11
0.2633408230572721
 21
0.039137486182467
 72
     1
 10
0.2633408230572729
 20
0.0391374861824669
 11
0.2550385441089194
 21
0.0453875164020133
 72
     1
 10
0.2550385441089191
 20
0.0453875164020132
 11
0.2442175962661241
 21
0.053596511317238
 72
     1
 10
0.2442175962661235
 20
0.0535965113172379
 11
0.2314376837276472
 21
0.0632980507625037
 72
     1
 10
0.2314376837276479
 20
0.0632980507625037
 11
0.2172585106922595
 21
0.0741189986052996
 72
     1
 10
0.2172585106922598
 20
0.0741189986052996
 11
0.2019599292593419
 21
0.0856862187131167
 72
     1
 10
0.201959929259341
 20
0.0856862187131167
 11
0.1862882116939105
 21
0.0976265749534437
 72
     1
 10
0.1862882116939102
 20
0.0976265749534437
 11
0.1706164941284813
 21
0.1095669311937706
 72
     1
 10
0.1706164941284811
 20
0.1095669311937709
 11
0.1553179126955632
 21
0.1211341513015875
 72
     1
 10
0.1553179126955642
 20
0.1211341513015876
 11
0.1411387396601757
 21
0.131955099144384
 72
     1
 10
0.1411387396601755
 20
0.1319550991443839
 11
0.1284521111548274
 21
0.141749922622777
 72
     1
 10
0.1284521111548278
 20
0.1417499226227768
 11
0.117631163312031
 21
0.1499589175380016
 72
     1
 10
0.1176311633120304
 20
0.1499589175380017
 11
0.1094221683968068
 21
0.1563022317906752
 72
     1
 10
0.1094221683968062
 20
0.1563022317906754
 11
0.1041049785085351
 21
0.1604067292482882
 72
     1
 10
0.1041049785085351
 20
0.1604067292482878
 11
0.1023325818791119
 21
0.1618992737783286
 72
     1
 10
0.1023325818791116
 20
0.1618992737783289
 11
0.1043848306079176
 21
0.1636716704077524
 72
     1
 10
0.1043848306079194
 20
0.1636716704077524
 11
0.1100751566286996
 21
0.1683358720641301
 72
     1
 10
0.1100751566286986
 20
0.1683358720641301
 11
0.1189371397758159
 21
0.1757053106812067
 72
     1
 10
0.1189371397758161
 20
0.1757053106812067
 11
0.1304110758505067
 21
0.1851269980270901
 72
     1
 10
0.1304110758505059
 20
0.1851269980270902
 11
0.1439372606540007
 21
0.1963210820023967
 72
     1
 10
0.1439372606540017
 20
0.1963210820023967
 11
0.1589559899875385
 21
0.2087278584083611
 72
     1
 10
0.1589559899875379
 20
0.2087278584083611
 11
0.1750941277186041
 21
0.2220674751456017
 72
     1
 10
0.1750941277186047
 20
0.2220674751456017
 11
0.19169868561531
 21
0.2358735120484796
 72
     1
 10
0.1916986856153105
 20
0.2358735120484796
 11
0.208303243512014
 21
0.2495862649182301
 72
     1
 10
0.2083032435120131
 20
0.2495862649182304
 11
0.2244413812430811
 21
0.2628325976223432
 72
     1
 10
0.2244413812430812
 20
0.2628325976223429
 11
0.239460110576618
 21
0.2753326580614352
 72
     1
 10
0.2394601105766174
 20
0.2753326580614351
 11
0.2529862953801122
 21
0.2864334580036143
 72
     1
 10
0.2529862953801132
 20
0.2864334580036143
 11
0.2643669474216756
 21
0.2958551453494973
 72
     1
 10
0.2643669474216757
 20
0.2958551453494973
 11
0.2731356465356649
 21
0.3031312999334466
 72
     1
 10
0.273135646535664
 20
0.3031312999334466
 11
0.2788259725564443
 21
0.3077955015898243
 72
     1
 10
0.278825972556445
 20
0.3077955015898246
 11
0.2807849372521245
 21
0.3094746141861208
 72
     1
 10
0.2807849372521249
 20
0.3094746141861205
 11
0.2798520969208501
 21
0.3094746141861205
 72
     1
 10
0.2798520969208496
 20
0.3094746141861205
 11
0.2769602918938953
 21
0.3095678982192478
 72
     1
 10
0.2769602918938943
 20
0.3095678982192481
 11
0.2724826583037715
 21
0.3095678982192481
 72
     1
 10
0.2724826583037729
 20
0.3095678982192481
 11
0.2666057642167363
 21
0.3095678982192481
 72
     1
 10
0.266605764216735
 20
0.3095678982192481
 11
0.2597027457652953
 21
0.3095678982192481
 72
     1
 10
0.2597027457652956
 20
0.3095678982192481
 11
0.2519601710157094
 21
0.3095678982192481
 72
     1
 10
0.2519601710157104
 20
0.3095678982192481
 11
0.2437511761004851
 21
0.3095678982192481
 72
     1
 10
0.243751176100484
 20
0.3095678982192481
 11
0.2351690450527495
 21
0.3095678982192481
 72
     1
 10
0.2351690450527495
 20
0.3095678982192481
 11
0.2266801980381413
 21
0.3095678982192481
 72
     1
 10
0.2266801980381423
 20
0.3095678982192481
 11
0.2183779190897905
 21
0.3094746141861208
 72
     1
 10
0.2183779190897899
 20
0.3094746141861205
 11
0.2106353443402037
 21
0.3094746141861205
 72
     1
 10
0.2106353443402029
 20
0.3094746141861205
 11
0.2037323258887632
 21
0.3094746141861205
 72
     1
 10
0.203732325888764
 20
0.3094746141861205
 11
0.1978554318017273
 21
0.3094746141861205
 72
     1
 10
0.1978554318017278
 20
0.3094746141861205
 11
0.1932845141784786
 21
0.3094746141861205
 72
     1
 10
0.1932845141784787
 20
0.3094746141861205
 11
0.1903927091515244
 21
0.3094746141861205
 72
     1
 10
0.1903927091515234
 20
0.3094746141861205
 11
0.1893665847871204
 21
0.3094746141861205
 72
     1
 10
0.1893665847871206
 20
0.3094746141861205
 11
0.1879673242902067
 21
0.3077955015898243
 72
     1
 10
0.1879673242902076
 20
0.3077955015898246
 11
0.1841426789319786
 21
0.3030380159003196
 72
     1
 10
0.1841426789319787
 20
0.3030380159003192
 11
0.1780792167786874
 21
0.29576186131637
 72
     1
 10
0.1780792167786873
 20
0.29576186131637
 11
0.170243357995973
 21
0.2862468899373593
 72
     1
 10
0.170243357995973
 20
0.2862468899373593
 11
0.1610082387163447
 21
0.2750528059620528
 72
     1
 10
0.1610082387163438
 20
0.2750528059620528
 11
0.1507469950723126
 21
0.2624594614898328
 72
     1
 10
0.1507469950723133
 20
0.2624594614898328
 11
0.1396461951301336
 21
0.2491198447525922
 72
     1
 10
0.1396461951301333
 20
0.2491198447525922
 11
0.1282655430885727
 21
0.2352205238165866
 72
     1
 10
0.1282655430885726
 20
0.2352205238165868
 11
0.1168848910470102
 21
0.2214144869137089
 72
     1
 10
0.1168848910470102
 20
0.2214144869137087
 11
0.1058773751379587
 21
0.2079815861433408
 72
     1
 10
0.105877375137958
 20
0.2079815861433408
 11
0.0955228474608004
 21
0.1954815257042486
 72
     1
 10
0.0955228474608019
 20
0.1954815257042488
 11
0.0862877281811736
 21
0.1842874417289424
 72
     1
 10
0.0862877281811727
 20
0.1842874417289424
 11
0.0784518693984583
 21
0.1747724703499316
 72
     1
 10
0.0784518693984584
 20
0.1747724703499314
 11
0.0723884072451672
 21
0.1674963157659821
 72
     1
 10
0.0723884072451671
 20
0.1674963157659822
 11
0.0685637618869363
 21
0.1627388300764767
 72
     1
 10
0.0685637618869364
 20
0.1627388300764767
 11
0.0671645013900242
 21
0.1611530015133082
 72
     1
 10
0.0671645013900251
 20
0.1611530015133082
 11
0.0680040576881734
 21
0.1596604569832674
 72
     1
 10
0.0680040576881726
 20
0.1596604569832674
 11
0.0704294425494878
 21
0.1556492435587824
 72
     1
 10
0.0704294425494871
 20
0.1556492435587824
 11
0.0742540879077179
 21
0.1493059293061089
 72
     1
 10
0.0742540879077192
 20
0.1493059293061089
 11
0.0791048576303511
 21
0.1411902184240116
 72
     1
 10
0.0791048576303508
 20
0.1411902184240116
 11
0.0848884676842594
 21
0.1314886789787458
 72
     1
 10
0.0848884676842596
 20
0.1314886789787459
 11
0.0913250659700619
 21
0.1207610151690772
 72
     1
 10
0.0913250659700613
 20
0.1207610151690775
 11
0.0982280844214992
 21
0.1091937950612604
 72
     1
 10
0.0982280844214985
 20
0.1091937950612603
 11
0.1053176709391927
 21
0.0973467228540611
 72
     1
 10
0.105317670939193
 20
0.0973467228540612
 11
0.1124072574568872
 21
0.0854996506468619
 72
     1
 10
0.1124072574568871
 20
0.0854996506468617
 11
0.1193102759083267
 21
0.0739324305390446
 72
     1
 10
0.1193102759083278
 20
0.0739324305390448
 11
0.1257468741941283
 21
0.0632047667293762
 72
     1
 10
0.1257468741941277
 20
0.063204766729376
 11
0.1315304842480362
 21
0.0535032272841102
 72
     1
 10
0.1315304842480365
 20
0.0535032272841104
 11
0.1363812539706702
 21
0.0453875164020132
 72
     1
 10
0.1363812539706699
 20
0.0453875164020132
 11
0.1402058993288989
 21
0.0391374861824667
 72
     1
 10
0.1402058993288988
 20
0.0391374861824669
 11
0.1426312841902157
 21
0.0350329887248546
 72
     1
 10
0.1426312841902164
 20
0.0350329887248547
 11
0.1434708404883648
 21
0.0336337282279412
 72
     1
 10
0.143470840488364
 20
0.0336337282279411
 11
0.2706169776412211
 21
0.0336337282279411
 97
        0
 75
     0
 76
     1
 98
        1
 10
-0.3743130907707726
 20
-0.2500502867693841
450
        0
451
        0
460
0.0
461
0.0
452
        0
462
0.0
453
        0
470

1001
ACAD
1010
0.0
1020
0.0
1030
0.0
  0
HATCH
  5
116C1
330
1123A
100
AcDbEntity
  8
Kawneer Logo-English
100
AcDbHatch
 10
0.0
 20
0.0
 30
0.0
210
0.0
220
0.0
230
1.0
  2
SOLID
 70
     1
 71
     0
 91
        1
 92
        1
 93
       18
 72
     1
 10
0.0001865656044393
 20
0.2563959993365415
 11
-0.0000000024618153
 21
0.113671428651383
 72
     1
 10
-0.0000000024618159
 20
0.1136714286513832
 11
0.0012126899688416
 21
0.1152572572145516
 72
     1
 10
0.0012126899688421
 20
0.1152572572145516
 11
0.0045709151614355
 21
0.1197348908046738
 72
     1
 10
0.004570915161435
 20
0.119734890804674
 11
0.0098881050497044
 21
0.1268244773223682
 72
     1
 10
0.0098881050497044
 20
0.1268244773223682
 11
0.0166978394680158
 21
0.1359663125688683
 72
     1
 10
0.016697839468016
 20
0.1359663125688683
 11
0.0248135503501131
 21
0.1467872604116651
 72
     1
 10
0.024813550350113
 20
0.1467872604116652
 11
0.0338621015634867
 21
0.1588209006851195
 72
     1
 10
0.0338621015634872
 20
0.1588209006851194
 11
0.0434703569756247
 21
0.1716940972567221
 72
     1
 10
0.0434703569756247
 20
0.1716940972567224
 11
0.0534517485202732
 21
0.1850337139939626
 72
     1
 10
0.0534517485202724
 20
0.1850337139939624
 11
0.0634331400649208
 21
0.1983733307312025
 72
     1
 10
0.0634331400649222
 20
0.1983733307312024
 11
0.0730413954770597
 21
0.2112465273028051
 72
     1
 10
0.0730413954770595
 20
0.2112465273028053
 11
0.0820899466904331
 21
0.2233734516093873
 72
     1
 10
0.0820899466904321
 20
0.2233734516093873
 11
0.0902056575725293
 21
0.2341943994521837
 72
     1
 10
0.0902056575725308
 20
0.2341943994521837
 11
0.0970153919908422
 21
0.2433362346986839
 72
     1
 10
0.0970153919908405
 20
0.2433362346986839
 11
0.1022392978459834
 21
0.2503325371832507
 72
     1
 10
0.1022392978459843
 20
0.2503325371832508
 11
0.1056908070717041
 21
0.2549034548065008
 72
     1
 10
0.1056908070717046
 20
0.254903454806501
 11
0.1069034995023621
 21
0.2564892833696694
 72
     1
 10
0.1069034995023625
 20
0.2564892833696695
 11
0.0001865656044399
 21
0.2563959993365418
 97
        0
 75
     0
 76
     1
 98
        1
 10
-0.3743130907707726
 20
-0.2500502867693841
450
        0
451
        0
460
0.0
461
0.0
452
        0
462
0.0
453
        0
470

1001
ACAD
1010
0.0
1020
0.0
1030
0.0
  0
HATCH
  5
116C2
330
1123A
100
AcDbEntity
  8
Kawneer Logo-English
100
AcDbHatch
 10
0.0
 20
0.0
 30
0.0
210
0.0
220
0.0
230
1.0
  2
SOLID
 70
     1
 71
     0
 91
        2
 92
       16
 93
       76
 72
     1
 10
1.358402087941634
 20
0.1650709309046659
 11
1.358402087941634
 21
0.16796273593162
 72
     1
 10
1.358402087941634
 20
0.1679627359316202
 11
1.358402087941634
 21
0.1729067896873803
 72
     1
 10
1.358402087941634
 20
0.1729067896873803
 11
1.358402087941634
 21
0.1791568199069267
 72
     1
 10
1.358402087941634
 20
0.1791568199069267
 11
1.358402087941634
 21
0.1861531223914932
 72
     1
 10
1.358402087941634
 20
0.186153122391493
 11
1.358402087941634
 21
0.1931494248760595
 72
     1
 10
1.358402087941634
 20
0.1931494248760596
 11
1.358402087941634
 21
0.1994927391287338
 72
     1
 10
1.358402087941634
 20
0.1994927391287336
 11
1.358402087941634
 21
0.2044367928844937
 72
     1
 10
1.358402087941634
 20
0.2044367928844937
 11
1.358402087941634
 21
0.2072353138783208
 72
     1
 10
1.358402087941634
 20
0.2072353138783208
 11
1.359894632471676
 21
0.2072353138783208
 72
     1
 10
1.359894632471676
 20
0.2072353138783208
 11
1.362693153465502
 21
0.2072353138783208
 72
     1
 10
1.362693153465502
 20
0.2072353138783208
 11
1.366424514790605
 21
0.2072353138783208
 72
     1
 10
1.366424514790606
 20
0.2072353138783208
 11
1.371088716446983
 21
0.2072353138783208
 72
     1
 10
1.371088716446982
 20
0.2072353138783208
 11
1.376405906335254
 21
0.2072353138783208
 72
     1
 10
1.376405906335254
 20
0.2072353138783208
 11
1.382282800422289
 21
0.2072353138783208
 72
     1
 10
1.38228280042229
 20
0.2072353138783208
 11
1.388346262575581
 21
0.2072353138783208
 72
     1
 10
1.388346262575579
 20
0.2072353138783208
 11
1.394596292795125
 21
0.2072353138783208
 72
     1
 10
1.394596292795125
 20
0.2072353138783208
 11
1.400753038981545
 21
0.2072353138783208
 72
     1
 10
1.400753038981546
 20
0.2072353138783208
 11
1.406723217101709
 21
0.2072353138783208
 72
     1
 10
1.406723217101708
 20
0.2072353138783208
 11
1.412320259089362
 21
0.2072353138783208
 72
     1
 10
1.412320259089362
 20
0.2072353138783208
 11
1.417264312845122
 21
0.2072353138783208
 72
     1
 10
1.417264312845123
 20
0.2072353138783208
 11
1.421368810302735
 21
0.2072353138783208
 72
     1
 10
1.421368810302734
 20
0.2072353138783208
 11
1.424540467429071
 21
0.2072353138783208
 72
     1
 10
1.424540467429072
 20
0.2072353138783208
 11
1.426592716157878
 21
0.2072353138783208
 72
     1
 10
1.426592716157878
 20
0.2072353138783208
 11
1.427338988422898
 21
0.2072353138783208
 72
     1
 10
1.427338988422898
 20
0.2072353138783208
 11
1.430977065714873
 21
0.207142029845193
 72
     1
 10
1.430977065714872
 20
0.207142029845193
 11
1.434335290907465
 21
0.2068621777458102
 72
     1
 10
1.434335290907465
 20
0.2068621777458102
 11
1.435921119470633
 21
0.2066756096795552
 72
     1
 10
1.435921119470633
 20
0.206675609679555
 11
1.437413664000673
 21
0.2063957575801723
 72
     1
 10
1.437413664000674
 20
0.2063957575801723
 11
1.438906208530714
 21
0.2061159054807895
 72
     1
 10
1.438906208530714
 20
0.2061159054807898
 11
1.440398753060756
 21
0.2056494853151523
 72
     1
 10
1.440398753060756
 20
0.2056494853151521
 11
1.441704729524542
 21
0.2050897811163865
 72
     1
 10
1.441704729524542
 20
0.2050897811163866
 11
1.443010705988328
 21
0.204530076917621
 72
     1
 10
1.443010705988329
 20
0.204530076917621
 11
1.444223398418986
 21
0.2036905206194736
 72
     1
 10
1.444223398418985
 20
0.2036905206194736
 11
1.445436090849643
 21
0.2028509643213252
 72
     1
 10
1.445436090849643
 20
0.2028509643213252
 11
1.446555499247174
 21
0.2018248399569224
 72
     1
 10
1.446555499247173
 20
0.2018248399569223
 11
1.447581623611576
 21
0.2007054315593917
 72
     1
 10
1.447581623611578
 20
0.2007054315593915
 11
1.448607747975981
 21
0.1993061710624781
 72
     1
 10
1.448607747975981
 20
0.1993061710624781
 11
1.449540588307258
 21
0.1978136265324374
 72
     1
 10
1.449540588307256
 20
0.1978136265324373
 11
1.450380144605403
 21
0.1961345139361415
 72
     1
 10
1.450380144605404
 20
0.1961345139361415
 11
1.451126416870426
 21
0.1944554013398453
 72
     1
 10
1.451126416870426
 20
0.1944554013398454
 11
1.451592837036063
 21
0.1929628568098046
 72
     1
 10
1.451592837036062
 20
0.1929628568098046
 11
1.451965973168573
 21
0.1913770282466361
 72
     1
 10
1.451965973168574
 20
0.1913770282466361
 11
1.452245825267955
 21
0.1899777677497231
 72
     1
 10
1.452245825267954
 20
0.1899777677497231
 11
1.452432393334211
 21
0.188671791285937
 72
     1
 10
1.452432393334211
 20
0.1886717912859369
 11
1.452432393334211
 21
0.1874590988552789
 72
     1
 10
1.452432393334211
 20
0.1874590988552789
 11
1.452525677367338
 21
0.1863396904577482
 72
     1
 10
1.452525677367337
 20
0.1863396904577481
 11
1.452432393334211
 21
0.1844740097951972
 72
     1
 10
1.452432393334211
 20
0.1844740097951974
 11
1.452245825267955
 21
0.1827948971989012
 72
     1
 10
1.452245825267954
 20
0.1827948971989009
 11
1.451872689135445
 21
0.1810225005694773
 72
     1
 10
1.451872689135446
 20
0.1810225005694774
 11
1.451406268969809
 21
0.1794366720063093
 72
     1
 10
1.451406268969809
 20
0.1794366720063094
 11
1.450846564771043
 21
0.1779441274762682
 72
     1
 10
1.450846564771041
 20
0.1779441274762681
 11
1.450100292506021
 21
0.1764515829462274
 72
     1
 10
1.450100292506023
 20
0.1764515829462275
 11
1.449260736207875
 21
0.1750523224493141
 72
     1
 10
1.449260736207873
 20
0.1750523224493139
 11
1.448327895876597
 21
0.1737463459855283
 72
     1
 10
1.448327895876596
 20
0.1737463459855281
 11
1.44702191941281
 21
0.1723470854886151
 72
     1
 10
1.447021919412811
 20
0.1723470854886151
 11
1.445715942949025
 21
0.1711343930579568
 72
     1
 10
1.445715942949026
 20
0.1711343930579568
 11
1.444316682452114
 21
0.1700149846604262
 72
     1
 10
1.444316682452114
 20
0.1700149846604259
 11
1.442824137922072
 21
0.168988860296023
 72
     1
 10
1.442824137922072
 20
0.168988860296023
 11
1.441238309358904
 21
0.1682425880310024
 72
     1
 10
1.441238309358902
 20
0.1682425880310024
 11
1.439559196762608
 21
0.1674963157659821
 72
     1
 10
1.439559196762608
 20
0.1674963157659822
 11
1.437880084166311
 21
0.1669366115672166
 72
     1
 10
1.437880084166311
 20
0.1669366115672167
 11
1.436107687536888
 21
0.1664701914015788
 72
     1
 10
1.436107687536888
 20
0.1664701914015789
 11
1.434242006874337
 21
0.166003771235941
 72
     1
 10
1.434242006874337
 20
0.1660037712359412
 11
1.432376326211786
 21
0.1657239191365588
 72
     1
 10
1.432376326211785
 20
0.1657239191365585
 11
1.430417361516107
 21
0.1655373510703035
 72
     1
 10
1.430417361516108
 20
0.1655373510703037
 11
1.428458396820429
 21
0.1653507830040482
 72
     1
 10
1.428458396820428
 20
0.1653507830040482
 11
1.424353899362817
 21
0.1651642149377932
 72
     1
 10
1.424353899362817
 20
0.1651642149377932
 11
1.420156117872077
 21
0.1650709309046658
 72
     1
 10
1.420156117872076
 20
0.1650709309046659
 11
1.41773073301076
 21
0.1650709309046659
 72
     1
 10
1.417730733010761
 20
0.1650709309046659
 11
1.411107566658704
 21
0.1650709309046659
 72
     1
 10
1.411107566658702
 20
0.1650709309046659
 11
1.401779163345947
 21
0.1650709309046659
 72
     1
 10
1.401779163345949
 20
0.1650709309046659
 11
1.390958215503152
 21
0.1650709309046659
 72
     1
 10
1.390958215503152
 20
0.1650709309046659
 11
1.379950699594101
 21
0.1650709309046659
 72
     1
 10
1.379950699594099
 20
0.1650709309046659
 11
1.369969308049451
 21
0.1650709309046659
 72
     1
 10
1.369969308049451
 20
0.1650709309046659
 11
1.362320017332992
 21
0.1650709309046659
 72
     1
 10
1.362320017332992
 20
0.1650709309046659
 11
1.358402087941635
 21
0.1650709309046659
 97
        0
 92
        1
 93
      107
 72
     1
 10
1.443756978253348
 20
0.1485596570410883
 11
1.446928635379685
 21
0.1492126452729816
 72
     1
 10
1.446928635379685
 20
0.1492126452729817
 11
1.449540588307256
 21
0.1498656335048746
 72
     1
 10
1.449540588307256
 20
0.1498656335048745
 11
1.451872689135445
 21
0.1506119057698948
 72
     1
 10
1.451872689135446
 20
0.1506119057698946
 11
1.45401822189738
 21
0.1514514620680426
 72
     1
 10
1.45401822189738
 20
0.1514514620680425
 11
1.455883902559929
 21
0.1521977343330632
 72
     1
 10
1.455883902559929
 20
0.1521977343330631
 11
1.457563015156225
 21
0.1530372906312111
 72
     1
 10
1.457563015156225
 20
0.1530372906312111
 11
1.459148843719394
 21
0.1539701309624869
 72
     1
 10
1.459148843719394
 20
0.1539701309624866
 11
1.460641388249434
 21
0.1549029712937624
 72
     1
 10
1.460641388249434
 20
0.1549029712937622
 11
1.462133932779476
 21
0.155835811625038
 72
     1
 10
1.462133932779476
 20
0.155835811625038
 11
1.463439909243262
 21
0.1568619359894408
 72
     1
 10
1.463439909243262
 20
0.1568619359894408
 11
1.464745885707048
 21
0.1579813443869714
 72
     1
 10
1.464745885707047
 20
0.1579813443869716
 11
1.465865294104579
 21
0.1591007527845022
 72
     1
 10
1.465865294104579
 20
0.1591007527845025
 11
1.466984702502109
 21
0.1602201611820331
 72
     1
 10
1.466984702502108
 20
0.1602201611820328
 11
1.468010826866511
 21
0.1613395695795634
 72
     1
 10
1.468010826866511
 20
0.1613395695795637
 11
1.468943667197788
 21
0.1625522620102216
 72
     1
 10
1.468943667197788
 20
0.1625522620102216
 11
1.469876507529063
 21
0.1636716704077522
 72
     1
 10
1.469876507529063
 20
0.1636716704077524
 11
1.470622779794084
 21
0.1648843628384107
 72
     1
 10
1.470622779794084
 20
0.1648843628384107
 11
1.471462336092232
 21
0.1661903393021964
 72
     1
 10
1.471462336092232
 20
0.1661903393021967
 11
1.472115324324125
 21
0.1674030317328546
 72
     1
 10
1.472115324324124
 20
0.1674030317328546
 11
1.472768312556016
 21
0.1686157241635125
 72
     1
 10
1.472768312556017
 20
0.1686157241635125
 11
1.473328016754783
 21
0.1699217006272986
 72
     1
 10
1.473328016754782
 20
0.1699217006272989
 11
1.47379443692042
 21
0.1711343930579568
 72
     1
 10
1.47379443692042
 20
0.1711343930579568
 11
1.474260857086057
 21
0.1724403695217425
 72
     1
 10
1.474260857086058
 20
0.1724403695217424
 11
1.474727277251697
 21
0.1736530619524008
 72
     1
 10
1.474727277251697
 20
0.173653061952401
 11
1.475380265483589
 21
0.1760784468137175
 72
     1
 10
1.475380265483588
 20
0.1760784468137173
 11
1.475846685649225
 21
0.1785038316750338
 72
     1
 10
1.475846685649226
 20
0.1785038316750335
 11
1.476219821781737
 21
0.1808359325032223
 72
     1
 10
1.476219821781738
 20
0.1808359325032223
 11
1.47649967388112
 21
0.1830747492982838
 72
     1
 10
1.47649967388112
 20
0.1830747492982838
 11
1.476592957914248
 21
0.1851269980270901
 72
     1
 10
1.476592957914248
 20
0.1851269980270902
 11
1.476686241947374
 21
0.1870859627227688
 72
     1
 10
1.476686241947375
 20
0.1870859627227687
 11
1.476592957914249
 21
0.1888583593521923
 72
     1
 10
1.476592957914248
 20
0.1888583593521922
 11
1.476499673881119
 21
0.1906307559816158
 72
     1
 10
1.47649967388112
 20
0.1906307559816159
 11
1.476406389847991
 21
0.1924031526110394
 72
     1
 10
1.476406389847991
 20
0.1924031526110394
 11
1.476126537748608
 21
0.1940822652073352
 72
     1
 10
1.476126537748608
 20
0.1940822652073352
 11
1.475846685649226
 21
0.195761377803631
 72
     1
 10
1.475846685649226
 20
0.1957613778036309
 11
1.475566833549843
 21
0.1974404903999272
 72
     1
 10
1.475566833549843
 20
0.1974404903999272
 11
1.475100413384206
 21
0.1990263189630953
 72
     1
 10
1.475100413384205
 20
0.1990263189630952
 11
1.474633993218568
 21
0.2006121475262637
 72
     1
 10
1.474633993218568
 20
0.2006121475262639
 11
1.47416757305293
 21
0.2021046920563051
 72
     1
 10
1.474167573052932
 20
0.2021046920563049
 11
1.473514584821038
 21
0.2035972365863457
 72
     1
 10
1.473514584821037
 20
0.2035972365863459
 11
1.472954880622271
 21
0.2050897811163867
 72
     1
 10
1.472954880622272
 20
0.2050897811163866
 11
1.472208608357252
 21
0.2064890416133
 72
     1
 10
1.472208608357252
 20
0.2064890416133001
 11
1.471462336092232
 21
0.2078883021102135
 72
     1
 10
1.471462336092232
 20
0.2078883021102136
 11
1.470622779794083
 21
0.2091942785739993
 72
     1
 10
1.470622779794084
 20
0.2091942785739991
 11
1.469783223495935
 21
0.2105002550377848
 72
     1
 10
1.469783223495934
 20
0.2105002550377851
 11
1.468850383164659
 21
0.2118062315015707
 72
     1
 10
1.468850383164661
 20
0.2118062315015709
 11
1.467917542833386
 21
0.2130189239322288
 72
     1
 10
1.467917542833385
 20
0.2130189239322289
 11
1.466891418468982
 21
0.2141383323297595
 72
     1
 10
1.466891418468982
 20
0.2141383323297595
 11
1.465772010071451
 21
0.2153510247604178
 72
     1
 10
1.46577201007145
 20
0.215351024760418
 11
1.464652601673919
 21
0.2163771491248209
 72
     1
 10
1.46465260167392
 20
0.2163771491248209
 11
1.463533193276389
 21
0.2174032734892238
 72
     1
 10
1.463533193276389
 20
0.2174032734892238
 11
1.462227216812603
 21
0.2184293978536266
 72
     1
 10
1.462227216812602
 20
0.2184293978536266
 11
1.461014524381945
 21
0.2193622381849024
 72
     1
 10
1.461014524381946
 20
0.2193622381849023
 11
1.459615263885032
 21
0.2202950785161781
 72
     1
 10
1.459615263885031
 20
0.2202950785161782
 11
1.458309287421245
 21
0.2211346348143262
 72
     1
 10
1.458309287421246
 20
0.221134634814326
 11
1.456816742891206
 21
0.221974191112474
 72
     1
 10
1.456816742891206
 20
0.2219741911124738
 11
1.455417482394292
 21
0.2227204633774945
 72
     1
 10
1.455417482394291
 20
0.2227204633774944
 11
1.453831653831122
 21
0.2233734516093874
 72
     1
 10
1.453831653831123
 20
0.2233734516093873
 11
1.452339109301082
 21
0.2240264398412803
 72
     1
 10
1.452339109301082
 20
0.2240264398412803
 11
1.450659996704785
 21
0.2245861440400459
 72
     1
 10
1.450659996704787
 20
0.2245861440400457
 11
1.44907416814162
 21
0.2251458482388108
 72
     1
 10
1.449074168141619
 20
0.2251458482388109
 11
1.447301771512194
 21
0.2256122684044489
 72
     1
 10
1.447301771512194
 20
0.2256122684044488
 11
1.445249522783388
 21
0.2261719726032139
 72
     1
 10
1.445249522783388
 20
0.226171972603214
 11
1.44329055808771
 21
0.2265451087357246
 72
     1
 10
1.443290558087712
 20
0.2265451087357244
 11
1.441145025325778
 21
0.2269182448682345
 72
     1
 10
1.441145025325776
 20
0.2269182448682345
 11
1.438906208530714
 21
0.2271980969676173
 72
     1
 10
1.438906208530714
 20
0.2271980969676173
 11
1.436387539636271
 21
0.2273846650338724
 72
     1
 10
1.436387539636271
 20
0.2273846650338724
 11
1.433495734609316
 21
0.2275712331001274
 72
     1
 10
1.433495734609317
 20
0.2275712331001274
 11
1.430044225383597
 21
0.2276645171332552
 72
     1
 10
1.430044225383597
 20
0.2276645171332549
 11
1.42612629599224
 21
0.2277578011663822
 72
     1
 10
1.42612629599224
 20
0.2277578011663825
 11
1.426033011959112
 21
0.2277578011663825
 72
     1
 10
1.426033011959111
 20
0.2277578011663825
 11
1.33489451159349
 21
0.2277578011663825
 72
     1
 10
1.334894511593491
 20
0.2277578011663825
 11
1.334894511593491
 21
0.0926825211976832
 72
     1
 10
1.334894511593491
 20
0.0926825211976832
 11
1.358588656007891
 21
0.0926825211976832
 72
     1
 10
1.358588656007891
 20
0.0926825211976832
 11
1.358588656007891
 21
0.0947347699264896
 72
     1
 10
1.358588656007891
 20
0.0947347699264896
 11
1.358588656007891
 21
0.1001452438478876
 72
     1
 10
1.358588656007891
 20
0.1001452438478875
 11
1.358588656007891
 21
0.1079811026306024
 72
     1
 10
1.358588656007891
 20
0.1079811026306024
 11
1.358588656007891
 21
0.1170296538439752
 72
     1
 10
1.358588656007891
 20
0.1170296538439753
 11
1.358588656007891
 21
0.1262647731236032
 72
     1
 10
1.358588656007891
 20
0.1262647731236031
 11
1.358588656007891
 21
0.1347536201382103
 72
     1
 10
1.358588656007891
 20
0.1347536201382104
 11
1.358588656007891
 21
0.1412835024571394
 72
     1
 10
1.358588656007891
 20
0.1412835024571393
 11
1.358588656007891
 21
0.1448282957159864
 72
     1
 10
1.358588656007891
 20
0.1448282957159865
 11
1.362320017332992
 21
0.1448282957159865
 72
     1
 10
1.362320017332992
 20
0.1448282957159865
 11
1.369409603850688
 21
0.1448282957159865
 72
     1
 10
1.369409603850688
 20
0.1448282957159865
 11
1.378738007163443
 21
0.1448282957159865
 72
     1
 10
1.378738007163443
 20
0.1448282957159865
 11
1.388999250807475
 21
0.1448282957159865
 72
     1
 10
1.388999250807473
 20
0.1448282957159865
 11
1.399260494451505
 21
0.1448282957159865
 72
     1
 10
1.399260494451506
 20
0.1448282957159865
 11
1.408215761631749
 21
0.1448282957159865
 72
     1
 10
1.408215761631748
 20
0.1448282957159865
 11
1.414745643950677
 21
0.1448282957159865
 72
     1
 10
1.414745643950678
 20
0.1448282957159865
 11
1.41773073301076
 21
0.1448282957159865
 72
     1
 10
1.417730733010761
 20
0.1448282957159865
 11
1.420062833838949
 21
0.1420297747221594
 72
     1
 10
1.420062833838949
 20
0.1420297747221597
 11
1.425193455660966
 21
0.1359663125688683
 72
     1
 10
1.425193455660965
 20
0.1359663125688683
 11
1.432283042178659
 21
0.1275707495873888
 72
     1
 10
1.432283042178659
 20
0.1275707495873886
 11
1.440305469027628
 21
0.1180557782083779
 72
     1
 10
1.440305469027629
 20
0.1180557782083781
 11
1.448234611843471
 21
0.1087273748956225
 72
     1
 10
1.448234611843471
 20
0.1087273748956225
 11
1.455044346261782
 21
0.1006116640135252
 72
     1
 10
1.455044346261782
 20
0.1006116640135252
 11
1.459895115984414
 21
0.0948280539596167
 72
     1
 10
1.459895115984414
 20
0.0948280539596169
 11
1.461760796646965
 21
0.0926825211976832
 72
     1
 10
1.461760796646967
 20
0.0926825211976832
 11
1.49254452757906
 21
0.0926825211976832
 72
     1
 10
1.492544527579059
 20
0.0926825211976832
 11
1.490678846916508
 21
0.0948280539596169
 72
     1
 10
1.490678846916508
 20
0.0948280539596169
 11
1.48564150912762
 21
0.100518379980398
 72
     1
 10
1.48564150912762
 20
0.1005183799803981
 11
1.478458638576797
 21
0.1088206589287502
 72
     1
 10
1.478458638576798
 20
0.1088206589287502
 11
1.470063075595318
 21
0.1183356303077609
 72
     1
 10
1.470063075595317
 20
0.118335630307761
 11
1.461480944547582
 21
0.1282237378192818
 72
     1
 10
1.461480944547582
 20
0.1282237378192818
 11
1.453551801731739
 21
0.1372722890326546
 72
     1
 10
1.45355180173174
 20
0.1372722890326546
 11
1.447395055545323
 21
0.1444551595834761
 72
     1
 10
1.447395055545323
 20
0.1444551595834759
 11
1.443756978253349
 21
0.1485596570410882
 97
        0
 75
     0
 76
     1
 98
        1
 10
-0.3743130907707726
 20
-0.2500502867693841
450
        0
451
        0
460
0.0
461
0.0
452
        0
462
0.0
453
        0
470

1001
ACAD
1010
0.0
1020
0.0
1030
0.0
  0
HATCH
  5
116C3
330
1123A
100
AcDbEntity
  8
Kawneer Logo-English
100
AcDbHatch
 10
0.0
 20
0.0
 30
0.0
210
0.0
220
0.0
230
1.0
  2
SOLID
 70
     1
 71
     0
 91
        1
 92
        1
 93
       87
 72
     1
 10
1.205602841678699
 20
0.1525708704655737
 11
1.207468522341251
 21
0.1525708704655737
 72
     1
 10
1.207468522341252
 20
0.1525708704655737
 11
1.211199883666355
 21
0.1525708704655737
 72
     1
 10
1.211199883666355
 20
0.1525708704655737
 11
1.216517073554626
 21
0.1525708704655737
 72
     1
 10
1.216517073554626
 20
0.1525708704655737
 11
1.223046955873555
 21
0.1525708704655737
 72
     1
 10
1.223046955873553
 20
0.1525708704655737
 11
1.230602962556885
 21
0.1525708704655737
 72
     1
 10
1.230602962556885
 20
0.1525708704655737
 11
1.238998525538365
 21
0.1525708704655737
 72
     1
 10
1.238998525538365
 20
0.1525708704655737
 11
1.247767224652354
 21
0.1525708704655737
 72
     1
 10
1.247767224652355
 20
0.1525708704655737
 11
1.256815775865728
 21
0.1525708704655737
 72
     1
 10
1.256815775865729
 20
0.1525708704655737
 11
1.265771043045974
 21
0.1525708704655737
 72
     1
 10
1.265771043045973
 20
0.1525708704655737
 11
1.274446458126836
 21
0.1525708704655737
 72
     1
 10
1.274446458126837
 20
0.1525708704655737
 11
1.282562169008935
 21
0.1525708704655737
 72
     1
 10
1.282562169008935
 20
0.1525708704655737
 11
1.289745039559756
 21
0.1525708704655737
 72
     1
 10
1.289745039559755
 20
0.1525708704655737
 11
1.295808501713046
 21
0.1525708704655737
 72
     1
 10
1.295808501713046
 20
0.1525708704655737
 11
1.300472703369423
 21
0.1525708704655737
 72
     1
 10
1.300472703369423
 20
0.1525708704655737
 11
1.303457792429505
 21
0.1525708704655737
 72
     1
 10
1.303457792429505
 20
0.1525708704655737
 11
1.304483916793908
 21
0.1525708704655737
 72
     1
 10
1.304483916793908
 20
0.1525708704655737
 11
1.304483916793908
 21
0.1730000737205081
 72
     1
 10
1.304483916793908
 20
0.1730000737205078
 11
1.303457792429505
 21
0.1730000737205078
 72
     1
 10
1.303457792429505
 20
0.1730000737205078
 11
1.300472703369423
 21
0.1730000737205078
 72
     1
 10
1.300472703369423
 20
0.1730000737205078
 11
1.295808501713045
 21
0.1730000737205078
 72
     1
 10
1.295808501713046
 20
0.1730000737205078
 11
1.289745039559754
 21
0.1730000737205078
 72
     1
 10
1.289745039559755
 20
0.1730000737205078
 11
1.282562169008934
 21
0.1730000737205078
 72
     1
 10
1.282562169008935
 20
0.1730000737205078
 11
1.274446458126837
 21
0.1730000737205078
 72
     1
 10
1.274446458126837
 20
0.1730000737205078
 11
1.265771043045975
 21
0.1730000737205078
 72
     1
 10
1.265771043045973
 20
0.1730000737205078
 11
1.256815775865728
 21
0.1730000737205078
 72
     1
 10
1.256815775865729
 20
0.1730000737205078
 11
1.247767224652355
 21
0.1730000737205078
 72
     1
 10
1.247767224652355
 20
0.1730000737205078
 11
1.238998525538365
 21
0.1730000737205078
 72
     1
 10
1.238998525538365
 20
0.1730000737205078
 11
1.230602962556885
 21
0.1730000737205078
 72
     1
 10
1.230602962556885
 20
0.1730000737205078
 11
1.223046955873553
 21
0.1730000737205078
 72
     1
 10
1.223046955873553
 20
0.1730000737205078
 11
1.216517073554625
 21
0.1730000737205078
 72
     1
 10
1.216517073554626
 20
0.1730000737205078
 11
1.211199883666355
 21
0.1730000737205078
 72
     1
 10
1.211199883666355
 20
0.1730000737205078
 11
1.207468522341252
 21
0.1730000737205078
 72
     1
 10
1.207468522341252
 20
0.1730000737205078
 11
1.205602841678701
 21
0.1730000737205078
 72
     1
 10
1.205602841678699
 20
0.1730000737205078
 11
1.205602841678699
 21
0.1754254585818243
 72
     1
 10
1.205602841678699
 20
0.1754254585818245
 11
1.205602841678699
 21
0.1794366720063095
 72
     1
 10
1.205602841678699
 20
0.1794366720063094
 11
1.205602841678699
 21
0.1843807257620694
 72
     1
 10
1.205602841678699
 20
0.1843807257620694
 11
1.205602841678699
 21
0.1898844837165951
 72
     1
 10
1.205602841678699
 20
0.1898844837165951
 11
1.205602841678699
 21
0.1952949576379935
 72
     1
 10
1.205602841678699
 20
0.1952949576379937
 11
1.205602841678699
 21
0.2003322954268815
 72
     1
 10
1.205602841678699
 20
0.2003322954268814
 11
1.205602841678699
 21
0.2042502248182386
 72
     1
 10
1.205602841678699
 20
0.2042502248182386
 11
1.205602841678699
 21
0.206675609679555
 72
     1
 10
1.205602841678699
 20
0.206675609679555
 11
1.207468522341251
 21
0.206675609679555
 72
     1
 10
1.207468522341252
 20
0.206675609679555
 11
1.211293167699483
 21
0.206675609679555
 72
     1
 10
1.211293167699483
 20
0.206675609679555
 11
1.21670364162088
 21
0.206675609679555
 72
     1
 10
1.216703641620879
 20
0.206675609679555
 11
1.223420092006063
 21
0.206675609679555
 72
     1
 10
1.223420092006064
 20
0.206675609679555
 11
1.231255950788778
 21
0.206675609679555
 72
     1
 10
1.231255950788778
 20
0.206675609679555
 11
1.239744797803386
 21
0.206675609679555
 72
     1
 10
1.239744797803385
 20
0.206675609679555
 11
1.248886633049885
 21
0.206675609679555
 72
     1
 10
1.248886633049885
 20
0.206675609679555
 11
1.258121752329513
 21
0.206675609679555
 72
     1
 10
1.258121752329514
 20
0.206675609679555
 11
1.267356871609143
 21
0.206675609679555
 72
     1
 10
1.267356871609142
 20
0.206675609679555
 11
1.276218854756259
 21
0.206675609679555
 72
     1
 10
1.276218854756259
 20
0.206675609679555
 11
1.284521133704611
 21
0.206675609679555
 72
     1
 10
1.284521133704611
 20
0.206675609679555
 11
1.291890572321688
 21
0.206675609679555
 72
     1
 10
1.291890572321688
 20
0.206675609679555
 11
1.298140602541234
 21
0.206675609679555
 72
     1
 10
1.298140602541234
 20
0.206675609679555
 11
1.30289808823074
 21
0.206675609679555
 72
     1
 10
1.30289808823074
 20
0.206675609679555
 11
1.305976461323949
 21
0.206675609679555
 72
     1
 10
1.305976461323949
 20
0.206675609679555
 11
1.30709586972148
 21
0.206675609679555
 72
     1
 10
1.307095869721479
 20
0.206675609679555
 11
1.307095869721479
 21
0.2277578011663822
 72
     1
 10
1.307095869721479
 20
0.2277578011663825
 11
1.304577200827036
 21
0.2277578011663825
 72
     1
 10
1.304577200827037
 20
0.2277578011663825
 11
1.182188549363684
 21
0.2277578011663825
 72
     1
 10
1.182188549363684
 20
0.2277578011663825
 11
1.182188549363684
 21
0.0926825211976832
 72
     1
 10
1.182188549363684
 20
0.0926825211976832
 11
1.311853355410986
 21
0.0926825211976832
 72
     1
 10
1.311853355410985
 20
0.0926825211976832
 11
1.311853355410985
 21
0.113671428651383
 72
     1
 10
1.311853355410985
 20
0.1136714286513832
 11
1.310733947013454
 21
0.1136714286513832
 72
     1
 10
1.310733947013455
 20
0.1136714286513832
 11
1.307469005853991
 21
0.1136714286513832
 72
     1
 10
1.307469005853991
 20
0.1136714286513832
 11
1.302431668065102
 21
0.1136714286513832
 72
     1
 10
1.302431668065103
 20
0.1136714286513832
 11
1.295901785746174
 21
0.1136714286513832
 72
     1
 10
1.295901785746174
 20
0.1136714286513832
 11
1.288159210996586
 21
0.1136714286513832
 72
     1
 10
1.288159210996587
 20
0.1136714286513832
 11
1.279483795915724
 21
0.1136714286513832
 72
     1
 10
1.279483795915723
 20
0.1136714286513832
 11
1.270155392602968
 21
0.1136714286513832
 72
     1
 10
1.270155392602969
 20
0.1136714286513832
 11
1.260547137190832
 21
0.1136714286513832
 72
     1
 10
1.260547137190831
 20
0.1136714286513832
 11
1.250752313712437
 21
0.1136714286513832
 72
     1
 10
1.250752313712437
 20
0.1136714286513832
 11
1.241330626366554
 21
0.1136714286513832
 72
     1
 10
1.241330626366555
 20
0.1136714286513832
 11
1.23237535918631
 21
0.1136714286513832
 72
     1
 10
1.232375359186308
 20
0.1136714286513832
 11
1.224166364271082
 21
0.1136714286513832
 72
     1
 10
1.224166364271083
 20
0.1136714286513832
 11
1.217170061786517
 21
0.1136714286513832
 72
     1
 10
1.217170061786517
 20
0.1136714286513832
 11
1.211479735765737
 21
0.1136714286513832
 72
     1
 10
1.211479735765737
 20
0.1136714286513832
 11
1.20756180637438
 21
0.1136714286513832
 72
     1
 10
1.207561806374379
 20
0.1136714286513832
 11
1.2056028416787
 21
0.1136714286513832
 72
     1
 10
1.205602841678699
 20
0.1136714286513832
 11
1.205602841678699
 21
0.1163766656120825
 72
     1
 10
1.205602841678699
 20
0.1163766656120823
 11
1.205602841678699
 21
0.1209475832353323
 72
     1
 10
1.205602841678699
 20
0.1209475832353325
 11
1.205602841678699
 21
0.1267311932892411
 72
     1
 10
1.205602841678699
 20
0.1267311932892408
 11
1.205602841678699
 21
0.1330745075419143
 72
     1
 10
1.205602841678699
 20
0.1330745075419144
 11
1.205602841678699
 21
0.1395111058277156
 72
     1
 10
1.205602841678699
 20
0.1395111058277158
 11
1.205602841678699
 21
0.1452947158816239
 72
     1
 10
1.205602841678699
 20
0.145294715881624
 11
1.205602841678699
 21
0.1498656335048746
 72
     1
 10
1.205602841678699
 20
0.1498656335048745
 11
1.205602841678699
 21
0.1525708704655738
 97
        0
 75
     0
 76
     1
 98
        1
 10
-0.3743130907707726
 20
-0.2500502867693841
450
        0
451
        0
460
0.0
461
0.0
452
        0
462
0.0
453
        0
470

1001
ACAD
1010
0.0
1020
0.0
1030
0.0
  0
HATCH
  5
116C4
330
1123A
100
AcDbEntity
  8
Kawneer Logo-English
100
AcDbHatch
 10
0.0
 20
0.0
 30
0.0
210
0.0
220
0.0
230
1.0
  2
SOLID
 70
     1
 71
     0
 91
        1
 92
        1
 93
       87
 72
     1
 10
1.049352086190046
 20
0.1525708704655737
 11
1.051217766852597
 21
0.1525708704655737
 72
     1
 10
1.051217766852596
 20
0.1525708704655737
 11
1.054949128177699
 21
0.1525708704655737
 72
     1
 10
1.0549491281777
 20
0.1525708704655737
 11
1.060173034032843
 21
0.1525708704655737
 72
     1
 10
1.060173034032843
 20
0.1525708704655737
 11
1.0667962003849
 21
0.1525708704655737
 72
     1
 10
1.0667962003849
 20
0.1525708704655737
 11
1.074352207068231
 21
0.1525708704655737
 72
     1
 10
1.074352207068232
 20
0.1525708704655737
 11
1.082747770049711
 21
0.1525708704655737
 72
     1
 10
1.082747770049711
 20
0.1525708704655737
 11
1.0915164691637
 21
0.1525708704655737
 72
     1
 10
1.091516469163701
 20
0.1525708704655737
 11
1.100565020377075
 21
0.1525708704655737
 72
     1
 10
1.100565020377073
 20
0.1525708704655737
 11
1.109520287557319
 21
0.1525708704655737
 72
     1
 10
1.10952028755732
 20
0.1525708704655737
 11
1.118195702638183
 21
0.1525708704655737
 72
     1
 10
1.118195702638182
 20
0.1525708704655737
 11
1.126218129487151
 21
0.1525708704655737
 72
     1
 10
1.126218129487152
 20
0.1525708704655737
 11
1.133401000037974
 21
0.1525708704655737
 72
     1
 10
1.133401000037974
 20
0.1525708704655737
 11
1.139557746224391
 21
0.1525708704655737
 72
     1
 10
1.139557746224392
 20
0.1525708704655737
 11
1.14422194788077
 21
0.1525708704655737
 72
     1
 10
1.144221947880769
 20
0.1525708704655737
 11
1.147207036940851
 21
0.1525708704655737
 72
     1
 10
1.147207036940852
 20
0.1525708704655737
 11
1.148233161305255
 21
0.1525708704655737
 72
     1
 10
1.148233161305255
 20
0.1525708704655737
 11
1.148233161305255
 21
0.1730000737205081
 72
     1
 10
1.148233161305255
 20
0.1730000737205078
 11
1.147207036940852
 21
0.1730000737205078
 72
     1
 10
1.147207036940852
 20
0.1730000737205078
 11
1.14422194788077
 21
0.1730000737205078
 72
     1
 10
1.144221947880769
 20
0.1730000737205078
 11
1.139557746224391
 21
0.1730000737205078
 72
     1
 10
1.139557746224392
 20
0.1730000737205078
 11
1.133494284071101
 21
0.1730000737205078
 72
     1
 10
1.133494284071101
 20
0.1730000737205078
 11
1.126218129487152
 21
0.1730000737205078
 72
     1
 10
1.126218129487152
 20
0.1730000737205078
 11
1.118195702638183
 21
0.1730000737205078
 72
     1
 10
1.118195702638182
 20
0.1730000737205078
 11
1.10952028755732
 21
0.1730000737205078
 72
     1
 10
1.10952028755732
 20
0.1730000737205078
 11
1.100565020377074
 21
0.1730000737205078
 72
     1
 10
1.100565020377073
 20
0.1730000737205078
 11
1.0915164691637
 21
0.1730000737205078
 72
     1
 10
1.091516469163701
 20
0.1730000737205078
 11
1.082747770049712
 21
0.1730000737205078
 72
     1
 10
1.082747770049711
 20
0.1730000737205078
 11
1.074352207068231
 21
0.1730000737205078
 72
     1
 10
1.074352207068232
 20
0.1730000737205078
 11
1.0667962003849
 21
0.1730000737205078
 72
     1
 10
1.0667962003849
 20
0.1730000737205078
 11
1.060173034032843
 21
0.1730000737205078
 72
     1
 10
1.060173034032843
 20
0.1730000737205078
 11
1.054949128177701
 21
0.1730000737205078
 72
     1
 10
1.0549491281777
 20
0.1730000737205078
 11
1.051217766852597
 21
0.1730000737205078
 72
     1
 10
1.051217766852596
 20
0.1730000737205078
 11
1.049352086190045
 21
0.1730000737205078
 72
     1
 10
1.049352086190046
 20
0.1730000737205078
 11
1.049352086190046
 21
0.1754254585818243
 72
     1
 10
1.049352086190046
 20
0.1754254585818245
 11
1.049352086190046
 21
0.1794366720063095
 72
     1
 10
1.049352086190046
 20
0.1794366720063094
 11
1.049352086190046
 21
0.1843807257620694
 72
     1
 10
1.049352086190046
 20
0.1843807257620694
 11
1.049352086190046
 21
0.1898844837165951
 72
     1
 10
1.049352086190046
 20
0.1898844837165951
 11
1.049352086190046
 21
0.1952949576379935
 72
     1
 10
1.049352086190046
 20
0.1952949576379937
 11
1.049352086190046
 21
0.2003322954268815
 72
     1
 10
1.049352086190046
 20
0.2003322954268814
 11
1.049352086190046
 21
0.2042502248182386
 72
     1
 10
1.049352086190046
 20
0.2042502248182386
 11
1.049352086190046
 21
0.206675609679555
 72
     1
 10
1.049352086190046
 20
0.206675609679555
 11
1.051217766852597
 21
0.206675609679555
 72
     1
 10
1.051217766852596
 20
0.206675609679555
 11
1.055042412210825
 21
0.206675609679555
 72
     1
 10
1.055042412210827
 20
0.206675609679555
 11
1.060452886132226
 21
0.206675609679555
 72
     1
 10
1.060452886132225
 20
0.206675609679555
 11
1.067169336517409
 21
0.206675609679555
 72
     1
 10
1.06716933651741
 20
0.206675609679555
 11
1.075005195300124
 21
0.206675609679555
 72
     1
 10
1.075005195300123
 20
0.206675609679555
 11
1.083494042314731
 21
0.206675609679555
 72
     1
 10
1.083494042314732
 20
0.206675609679555
 11
1.092542593528105
 21
0.206675609679555
 72
     1
 10
1.092542593528106
 20
0.206675609679555
 11
1.10187099684086
 21
0.206675609679555
 72
     1
 10
1.101870996840861
 20
0.206675609679555
 11
1.111106116120489
 21
0.206675609679555
 72
     1
 10
1.111106116120488
 20
0.206675609679555
 11
1.119968099267605
 21
0.206675609679555
 72
     1
 10
1.119968099267605
 20
0.206675609679555
 11
1.128270378215957
 21
0.206675609679555
 72
     1
 10
1.128270378215957
 20
0.206675609679555
 11
1.135639816833034
 21
0.206675609679555
 72
     1
 10
1.135639816833034
 20
0.206675609679555
 11
1.14188984705258
 21
0.206675609679555
 72
     1
 10
1.141889847052581
 20
0.206675609679555
 11
1.146647332742086
 21
0.206675609679555
 72
     1
 10
1.146647332742086
 20
0.206675609679555
 11
1.149725705835295
 21
0.206675609679555
 72
     1
 10
1.149725705835296
 20
0.206675609679555
 11
1.150845114232827
 21
0.206675609679555
 72
     1
 10
1.150845114232826
 20
0.206675609679555
 11
1.150845114232826
 21
0.2277578011663822
 72
     1
 10
1.150845114232826
 20
0.2277578011663825
 11
1.148326445338383
 21
0.2277578011663825
 72
     1
 10
1.148326445338383
 20
0.2277578011663825
 11
1.025937793875031
 21
0.2277578011663825
 72
     1
 10
1.025937793875032
 20
0.2277578011663825
 11
1.025937793875032
 21
0.0926825211976832
 72
     1
 10
1.025937793875032
 20
0.0926825211976832
 11
1.155602599922332
 21
0.0926825211976832
 72
     1
 10
1.155602599922332
 20
0.0926825211976832
 11
1.155602599922332
 21
0.113671428651383
 72
     1
 10
1.155602599922332
 20
0.1136714286513832
 11
1.154483191524801
 21
0.1136714286513832
 72
     1
 10
1.154483191524799
 20
0.1136714286513832
 11
1.151218250365336
 21
0.1136714286513832
 72
     1
 10
1.151218250365338
 20
0.1136714286513832
 11
1.146180912576449
 21
0.1136714286513832
 72
     1
 10
1.146180912576449
 20
0.1136714286513832
 11
1.13965103025752
 21
0.1136714286513832
 72
     1
 10
1.13965103025752
 20
0.1136714286513832
 11
1.131908455507932
 21
0.1136714286513832
 72
     1
 10
1.131908455507931
 20
0.1136714286513832
 11
1.12323304042707
 21
0.1136714286513832
 72
     1
 10
1.123233040427071
 20
0.1136714286513832
 11
1.113904637114314
 21
0.1136714286513832
 72
     1
 10
1.113904637114314
 20
0.1136714286513832
 11
1.104296381702177
 21
0.1136714286513832
 72
     1
 10
1.104296381702177
 20
0.1136714286513832
 11
1.094501558223783
 21
0.1136714286513832
 72
     1
 10
1.094501558223784
 20
0.1136714286513832
 11
1.085079870877901
 21
0.1136714286513832
 72
     1
 10
1.085079870877899
 20
0.1136714286513832
 11
1.076124603697654
 21
0.1136714286513832
 72
     1
 10
1.076124603697655
 20
0.1136714286513832
 11
1.067915608782429
 21
0.1136714286513832
 72
     1
 10
1.067915608782429
 20
0.1136714286513832
 11
1.060919306297863
 21
0.1136714286513832
 72
     1
 10
1.060919306297863
 20
0.1136714286513832
 11
1.055228980277083
 21
0.1136714286513832
 72
     1
 10
1.055228980277082
 20
0.1136714286513832
 11
1.051311050885725
 21
0.1136714286513832
 72
     1
 10
1.051311050885726
 20
0.1136714286513832
 11
1.049352086190046
 21
0.1136714286513832
 72
     1
 10
1.049352086190046
 20
0.1136714286513832
 11
1.049352086190046
 21
0.1163766656120825
 72
     1
 10
1.049352086190046
 20
0.1163766656120823
 11
1.049352086190046
 21
0.1209475832353323
 72
     1
 10
1.049352086190046
 20
0.1209475832353325
 11
1.049352086190046
 21
0.1267311932892411
 72
     1
 10
1.049352086190046
 20
0.1267311932892408
 11
1.049352086190046
 21
0.1330745075419143
 72
     1
 10
1.049352086190046
 20
0.1330745075419144
 11
1.049352086190046
 21
0.1395111058277156
 72
     1
 10
1.049352086190046
 20
0.1395111058277158
 11
1.049352086190046
 21
0.1452947158816239
 72
     1
 10
1.049352086190046
 20
0.145294715881624
 11
1.049352086190046
 21
0.1498656335048746
 72
     1
 10
1.049352086190046
 20
0.1498656335048745
 11
1.049352086190046
 21
0.1525708704655738
 97
        0
 75
     0
 76
     1
 98
        1
 10
-0.3743130907707726
 20
-0.2500502867693841
450
        0
451
        0
460
0.0
461
0.0
452
        0
462
0.0
453
        0
470

1001
ACAD
1010
0.0
1020
0.0
1030
0.0
  0
HATCH
  5
116C5
330
1123A
100
AcDbEntity
  8
Kawneer Logo-English
100
AcDbHatch
 10
0.0
 20
0.0
 30
0.0
210
0.0
220
0.0
230
1.0
  2
SOLID
 70
     1
 71
     0
 91
        1
 92
        1
 93
       42
 72
     1
 10
0.9725793269260698
 20
0.2277578011663825
 11
0.9725793269260698
 21
0.1354998924032311
 72
     1
 10
0.9725793269260698
 20
0.1354998924032311
 11
0.9729524630585808
 21
0.1264513411898582
 72
     1
 10
0.9729524630585796
 20
0.1264513411898583
 11
0.9729524630585796
 21
0.1255185008585825
 72
     1
 10
0.9729524630585796
 20
0.1255185008585824
 11
0.9731390311248343
 21
0.1238393882622866
 72
     1
 10
0.9731390311248349
 20
0.1238393882622866
 11
0.9717397706279211
 21
0.1254252168254551
 72
     1
 10
0.97173977062792
 20
0.1254252168254551
 11
0.9710867823960281
 21
0.1262647731236031
 72
     1
 10
0.9710867823960294
 20
0.1262647731236031
 11
0.9641837639445897
 21
0.1339140638400625
 72
     1
 10
0.9641837639445899
 20
0.1339140638400624
 11
0.8755639324734129
 21
0.2277578011663823
 72
     1
 10
0.8755639324734115
 20
0.2277578011663825
 11
0.8529891964565429
 21
0.2277578011663825
 72
     1
 10
0.8529891964565434
 20
0.2277578011663825
 11
0.8529891964565434
 21
0.0926825211976832
 72
     1
 10
0.8529891964565434
 20
0.0926825211976832
 11
0.8756572165065401
 21
0.0926825211976832
 72
     1
 10
0.875657216506541
 20
0.0926825211976832
 11
0.875657216506541
 21
0.1927762887435495
 72
     1
 10
0.875657216506541
 20
0.1927762887435495
 11
0.875657216506541
 21
0.1931494248760597
 72
     1
 10
0.875657216506541
 20
0.1931494248760596
 11
0.8755639324734129
 21
0.193988981174208
 72
     1
 10
0.8755639324734115
 20
0.1939889811742079
 11
0.8754706484402849
 21
0.1952949576379935
 72
     1
 10
0.8754706484402859
 20
0.1952949576379937
 11
0.8753773644071577
 21
0.1967875021680344
 72
     1
 10
0.875377364407158
 20
0.1967875021680343
 11
0.8755639324734126
 21
0.1965076500686515
 72
     1
 10
0.8755639324734115
 20
0.1965076500686517
 11
0.8756572165065396
 21
0.1963210820023967
 72
     1
 10
0.875657216506541
 20
0.1963210820023967
 11
0.8764967728046894
 21
0.1954815257042487
 72
     1
 10
0.8764967728046887
 20
0.1954815257042488
 11
0.8781758854009835
 21
0.1936158450416976
 72
     1
 10
0.8781758854009842
 20
0.1936158450416973
 11
0.8797617139641527
 21
0.1917501643791464
 72
     1
 10
0.879761713964152
 20
0.1917501643791466
 11
0.8805079862291723
 21
0.1909106080809982
 72
     1
 10
0.8805079862291727
 20
0.190910608080998
 11
0.8816273946267036
 21
0.1897911996834678
 72
     1
 10
0.8816273946267028
 20
0.1897911996834681
 11
0.884519199653657
 21
0.1867128265902584
 72
     1
 10
0.8845191996536581
 20
0.1867128265902582
 11
0.8891834013100353
 21
0.1818620568676254
 72
     1
 10
0.889183401310035
 20
0.1818620568676252
 11
0.8951535794301982
 21
0.1756120266480794
 72
     1
 10
0.8951535794301985
 20
0.1756120266480794
 11
0.9021498819147662
 21
0.1681493039978751
 72
     1
 10
0.9021498819147669
 20
0.1681493039978752
 11
0.9099857406974814
 21
0.1598470250495227
 72
     1
 10
0.9099857406974813
 20
0.1598470250495225
 11
0.9183813036789613
 21
0.1509850419024051
 72
     1
 10
0.9183813036789612
 20
0.1509850419024052
 11
0.9271500027929521
 21
0.1418432066559046
 72
     1
 10
0.9271500027929509
 20
0.1418432066559046
 11
0.9358254178738118
 21
0.1326080873762767
 72
     1
 10
0.9358254178738132
 20
0.1326080873762767
 11
0.9442209808552931
 21
0.1237461042291589
 72
     1
 10
0.9442209808552931
 20
0.1237461042291589
 11
0.9520568396380092
 21
0.1154438252808068
 72
     1
 10
0.9520568396380092
 20
0.1154438252808068
 11
0.9590531421225751
 21
0.1079811026306025
 72
     1
 10
0.959053142122574
 20
0.1079811026306024
 11
0.9650233202427372
 21
0.101731072411056
 72
     1
 10
0.9650233202427376
 20
0.101731072411056
 11
0.9695942378659868
 21
0.0968803026884232
 72
     1
 10
0.9695942378659871
 20
0.096880302688423
 11
0.9725793269260696
 21
0.0938019295952138
 72
     1
 10
0.9725793269260698
 20
0.093801929595214
 11
0.9736054512904727
 21
0.0926825211976834
 72
     1
 10
0.9736054512904726
 20
0.0926825211976832
 11
0.9952473469760661
 21
0.0926825211976832
 72
     1
 10
0.9952473469760651
 20
0.0926825211976832
 11
0.9952473469760651
 21
0.2277578011663825
 72
     1
 10
0.9952473469760651
 20
0.2277578011663825
 11
0.9927286780816201
 21
0.2277578011663825
 72
     1
 10
0.9927286780816203
 20
0.2277578011663825
 11
0.9725793269260686
 21
0.2277578011663825
 97
        0
 75
     0
 76
     1
 98
        1
 10
-0.3743130907707726
 20
-0.2500502867693841
450
        0
451
        0
460
0.0
461
0.0
452
        0
462
0.0
453
        0
470

1001
ACAD
1010
0.0
1020
0.0
1030
0.0
  0
HATCH
  5
116C6
330
1123A
100
AcDbEntity
  8
Kawneer Logo-English
100
AcDbHatch
 10
0.0
 20
0.0
 30
0.0
210
0.0
220
0.0
230
1.0
  2
SOLID
 70
     1
 71
     0
 91
        2
 92
       16
 93
       32
 72
     1
 10
0.5269615006757409
 20
0.144641727649731
 11
0.5290137494045469
 21
0.148652941074216
 72
     1
 10
0.5290137494045464
 20
0.1486529410742159
 11
0.5322786905640116
 21
0.1551828233931449
 72
     1
 10
0.532278690564012
 20
0.1551828233931452
 11
0.5364764720547521
 21
0.1633918183083696
 72
     1
 10
0.5364764720547526
 20
0.1633918183083696
 11
0.5409541056448736
 21
0.1722538014554874
 72
     1
 10
0.5409541056448726
 20
0.1722538014554873
 11
0.545338455201869
 21
0.1808359325032223
 72
     1
 10
0.5453384552018701
 20
0.1808359325032223
 11
0.5490698165269726
 21
0.1882053711202994
 72
     1
 10
0.549069816526973
 20
0.1882053711202996
 11
0.5515884854214162
 21
0.1932427089091875
 72
     1
 10
0.5515884854214148
 20
0.1932427089091872
 11
0.5526146097858177
 21
0.1952016736048658
 72
     1
 10
0.5526146097858194
 20
0.1952016736048658
 11
0.552801177852074
 21
0.195761377803631
 72
     1
 10
0.5528011778520723
 20
0.1957613778036309
 11
0.5533608820508379
 21
0.1970673542674166
 72
     1
 10
0.5533608820508378
 20
0.1970673542674169
 11
0.5542004383489863
 21
0.1990263189630955
 72
     1
 10
0.5542004383489872
 20
0.1990263189630952
 11
0.5550399946471356
 21
0.2012651357581567
 72
     1
 10
0.5550399946471352
 20
0.2012651357581567
 11
0.5555064148127727
 21
0.2001457273606265
 72
     1
 10
0.5555064148127729
 20
0.2001457273606264
 11
0.5560661190115385
 21
0.198933034929968
 72
     1
 10
0.5560661190115379
 20
0.198933034929968
 11
0.5567191072434298
 21
0.197533774433055
 72
     1
 10
0.5567191072434304
 20
0.197533774433055
 11
0.5574653795084506
 21
0.1959479458698865
 72
     1
 10
0.557465379508451
 20
0.1959479458698865
 11
0.5583049358065995
 21
0.1942688332735902
 72
     1
 10
0.5583049358065986
 20
0.1942688332735903
 11
0.5606370366347874
 21
0.1896046316172126
 72
     1
 10
0.5606370366347871
 20
0.1896046316172126
 11
0.5639952618273804
 21
0.1828881812320289
 72
     1
 10
0.5639952618273814
 20
0.1828881812320287
 11
0.5680064752518651
 21
0.1748657543830587
 72
     1
 10
0.5680064752518637
 20
0.1748657543830589
 11
0.57239082480886
 21
0.1661903393021966
 72
     1
 10
0.5723908248088612
 20
0.1661903393021967
 11
0.5765886062996012
 21
0.1577947763207168
 72
     1
 10
0.5765886062996
 20
0.1577947763207165
 11
0.5803199676247008
 21
0.1503320536705122
 72
     1
 10
0.5803199676247015
 20
0.1503320536705122
 11
0.5831184886185295
 21
0.144641727649731
 72
     1
 10
0.5831184886185295
 20
0.144641727649731
 11
0.5791072751940441
 21
0.144641727649731
 72
     1
 10
0.5791072751940436
 20
0.144641727649731
 11
0.5724841088419869
 21
0.144641727649731
 72
     1
 10
0.5724841088419872
 20
0.144641727649731
 11
0.5641818298936356
 21
0.144641727649731
 72
     1
 10
0.5641818298936352
 20
0.144641727649731
 11
0.5550399946471351
 21
0.144641727649731
 72
     1
 10
0.5550399946471352
 20
0.144641727649731
 11
0.5458981594006351
 21
0.144641727649731
 72
     1
 10
0.5458981594006352
 20
0.144641727649731
 11
0.5375958804522815
 21
0.144641727649731
 72
     1
 10
0.5375958804522814
 20
0.144641727649731
 11
0.5310659981333528
 21
0.144641727649731
 72
     1
 10
0.5310659981333524
 20
0.144641727649731
 11
0.5269615006757405
 21
0.144641727649731
 97
        0
 92
        1
 93
      141
 72
     1
 10
0.5656743744236757
 20
0.2277578011663825
 11
0.544405614870593
 21
0.2277578011663825
 72
     1
 10
0.544405614870593
 20
0.2277578011663825
 11
0.4748157261574382
 21
0.0934287934627039
 72
     1
 10
0.4748157261574378
 20
0.0934287934627039
 11
0.4729500454948865
 21
0.0955743262246376
 72
     1
 10
0.4729500454948874
 20
0.0955743262246376
 11
0.4699649564348049
 21
0.0991191194834847
 72
     1
 10
0.4699649564348043
 20
0.0991191194834847
 11
0.4661403110765752
 21
0.1036900371067346
 72
     1
 10
0.4661403110765754
 20
0.1036900371067347
 11
0.4615693934533244
 21
0.1091005110281331
 72
     1
 10
0.461569393453325
 20
0.109100511028133
 11
0.456345487598182
 21
0.1152572572145517
 72
     1
 10
0.4563454875981812
 20
0.1152572572145516
 11
0.4506551615774008
 21
0.1219737075997353
 72
     1
 10
0.4506551615774015
 20
0.1219737075997354
 11
0.4447782674903648
 21
0.1290632941174296
 72
     1
 10
0.4447782674903636
 20
0.1290632941174296
 11
0.4387148053370722
 21
0.1362461646682511
 72
     1
 10
0.4387148053370727
 20
0.1362461646682512
 11
0.4326513431837832
 21
0.1433357511859454
 72
     1
 10
0.4326513431837844
 20
0.1433357511859453
 11
0.4268677331298759
 21
0.1502387696373844
 72
     1
 10
0.4268677331298756
 20
0.1502387696373844
 11
0.4214572592084763
 21
0.1566753679231857
 72
     1
 10
0.4214572592084754
 20
0.1566753679231858
 11
0.4165132054527153
 21
0.1625522620102216
 72
     1
 10
0.4165132054527163
 20
0.1625522620102216
 11
0.4123154239619763
 21
0.1674963157659821
 72
     1
 10
0.4123154239619753
 20
0.1674963157659822
 11
0.4088639147362555
 21
0.1715075291904667
 72
     1
 10
0.4088639147362568
 20
0.1715075291904669
 11
0.4065318139080681
 21
0.1743993342174211
 72
     1
 10
0.4065318139080665
 20
0.1743993342174211
 11
0.405319121477409
 21
0.1757985947143345
 72
     1
 10
0.4053191214774104
 20
0.1757985947143345
 11
0.4067183819743243
 21
0.1769180031118651
 72
     1
 10
0.4067183819743235
 20
0.1769180031118651
 11
0.4094236189350213
 21
0.1788769678075437
 72
     1
 10
0.4094236189350218
 20
0.1788769678075437
 11
0.4132482642932526
 21
0.1816754888013702
 72
     1
 10
0.4132482642932525
 20
0.1816754888013703
 11
0.4179124659496298
 21
0.1852202820602174
 72
     1
 10
0.417912465949629
 20
0.1852202820602174
 11
0.4232296558379
 21
0.189138211451575
 72
     1
 10
0.4232296558379001
 20
0.1891382114515751
 11
0.4291065499249351
 21
0.1935225610085696
 72
     1
 10
0.4291065499249367
 20
0.1935225610085698
 11
0.4352632961113562
 21
0.1981867626649482
 72
     1
 10
0.4352632961113554
 20
0.1981867626649479
 11
0.4416066103640296
 21
0.2028509643213252
 72
     1
 10
0.4416066103640293
 20
0.2028509643213252
 11
0.4479499246167016
 21
0.2076084500108307
 72
     1
 10
0.4479499246167018
 20
0.2076084500108307
 11
0.4540133867699932
 21
0.2120860836009535
 72
     1
 10
0.4540133867699927
 20
0.2120860836009535
 11
0.4596104287576467
 21
0.2162838650916932
 72
     1
 10
0.4596104287576468
 20
0.216283865091693
 11
0.4646477665465351
 21
0.2200152264167952
 72
     1
 10
0.464647766546535
 20
0.2200152264167951
 11
0.4689388320704013
 21
0.223186883543132
 72
     1
 10
0.4689388320704016
 20
0.2231868835431323
 11
0.4721104891967386
 21
0.2256122684044488
 72
     1
 10
0.4721104891967376
 20
0.2256122684044488
 11
0.4742560219586717
 21
0.2271980969676172
 72
     1
 10
0.4742560219586727
 20
0.2271980969676173
 11
0.475002294223693
 21
0.2277578011663825
 72
     1
 10
0.4750022942236929
 20
0.2277578011663825
 11
0.4674462875403612
 21
0.2277578011663825
 72
     1
 10
0.4674462875403611
 20
0.2277578011663825
 11
0.4395543616352215
 21
0.2277578011663825
 72
     1
 10
0.439554361635222
 20
0.2277578011663825
 11
0.4386215213039473
 21
0.2270115289013622
 72
     1
 10
0.4386215213039466
 20
0.2270115289013622
 11
0.4359162843432469
 21
0.2250525642056836
 72
     1
 10
0.4359162843432465
 20
0.2250525642056836
 11
0.4318117868856346
 21
0.2220674751456017
 72
     1
 10
0.4318117868856351
 20
0.2220674751456017
 11
0.4264013129642376
 21
0.2180562617211167
 72
     1
 10
0.4264013129642379
 20
0.2180562617211168
 11
0.4200579987115638
 21
0.2132987760316117
 72
     1
 10
0.4200579987115641
 20
0.2132987760316114
 11
0.4128751281607416
 21
0.2079815861433408
 72
     1
 10
0.4128751281607408
 20
0.2079815861433408
 11
0.4051325534111546
 21
0.20229126012256
 72
     1
 10
0.4051325534111552
 20
0.20229126012256
 11
0.397016842529058
 21
0.1963210820023964
 72
     1
 10
0.3970168425290583
 20
0.1963210820023967
 11
0.3889011316469611
 21
0.1903509038822331
 72
     1
 10
0.3889011316469611
 20
0.190350903882233
 11
0.3808787047979902
 21
0.1844740097951972
 72
     1
 10
0.3808787047979898
 20
0.1844740097951974
 11
0.3733226981146581
 21
0.1787836837744166
 72
     1
 10
0.373322698114658
 20
0.1787836837744166
 11
0.3663263956300919
 21
0.173653061952401
 72
     1
 10
0.3663263956300931
 20
0.173653061952401
 11
0.3601696494436735
 21
0.169082144329151
 72
     1
 10
0.3601696494436726
 20
0.1690821443291508
 11
0.3550390276216579
 21
0.1653507830040483
 72
     1
 10
0.3550390276216584
 20
0.1653507830040482
 11
0.3513076662965558
 21
0.1625522620102218
 72
     1
 10
0.3513076662965551
 20
0.1625522620102216
 11
0.3490688495014928
 21
0.1609664334470531
 72
     1
 10
0.3490688495014926
 20
0.1609664334470531
 11
0.3490688495014926
 21
0.1631119662089868
 72
     1
 10
0.3490688495014926
 20
0.1631119662089868
 11
0.3490688495014926
 21
0.1662836233353237
 72
     1
 10
0.3490688495014926
 20
0.1662836233353238
 11
0.3490688495014926
 21
0.1702948367598088
 72
     1
 10
0.3490688495014926
 20
0.1702948367598088
 11
0.3490688495014926
 21
0.1749590384161865
 72
     1
 10
0.3490688495014926
 20
0.1749590384161865
 11
0.3490688495014926
 21
0.1801829442713294
 72
     1
 10
0.3490688495014926
 20
0.1801829442713296
 11
0.3490688495014926
 21
0.185779986258983
 72
     1
 10
0.3490688495014926
 20
0.1857799862589829
 11
0.3490688495014926
 21
0.1916568803460187
 72
     1
 10
0.3490688495014926
 20
0.1916568803460186
 11
0.3490688495014926
 21
0.1975337744330549
 72
     1
 10
0.3490688495014926
 20
0.197533774433055
 11
0.3490688495014926
 21
0.2033173844869632
 72
     1
 10
0.3490688495014926
 20
0.2033173844869631
 11
0.3490688495014926
 21
0.2088211424414888
 72
     1
 10
0.3490688495014926
 20
0.2088211424414888
 11
0.3490688495014926
 21
0.2139517642635044
 72
     1
 10
0.3490688495014926
 20
0.2139517642635044
 11
0.3490688495014926
 21
0.2185226818867544
 72
     1
 10
0.3490688495014926
 20
0.2185226818867545
 11
0.3490688495014926
 21
0.2222540432118567
 72
     1
 10
0.3490688495014926
 20
0.2222540432118567
 11
0.3490688495014926
 21
0.2252391322719387
 72
     1
 10
0.3490688495014926
 20
0.2252391322719387
 11
0.3490688495014926
 21
0.2271048129344895
 72
     1
 10
0.3490688495014926
 20
0.2271048129344895
 11
0.3490688495014926
 21
0.2277578011663825
 72
     1
 10
0.3490688495014926
 20
0.2277578011663825
 11
0.3258411252527322
 21
0.2277578011663825
 72
     1
 10
0.3258411252527336
 20
0.2277578011663825
 11
0.3258411252527336
 21
0.0926825211976832
 72
     1
 10
0.3258411252527336
 20
0.0926825211976832
 11
0.3486957133689848
 21
0.0926825211976832
 72
     1
 10
0.3486957133689845
 20
0.0926825211976832
 11
0.3486957133689845
 21
0.0943616337939795
 72
     1
 10
0.3486957133689845
 20
0.0943616337939795
 11
0.3486957133689845
 21
0.0988392673841017
 72
     1
 10
0.3486957133689845
 20
0.0988392673841017
 11
0.3486957133689845
 21
0.1051825816367752
 72
     1
 10
0.3486957133689845
 20
0.1051825816367753
 11
0.3486957133689845
 21
0.1125520202538523
 72
     1
 10
0.3486957133689845
 20
0.1125520202538524
 11
0.3486957133689845
 21
0.1200147429040567
 72
     1
 10
0.3486957133689845
 20
0.1200147429040567
 11
0.3486957133689845
 21
0.1267311932892408
 72
     1
 10
0.3486957133689845
 20
0.1267311932892408
 11
0.3486957133689845
 21
0.1317685310781287
 72
     1
 10
0.3486957133689845
 20
0.1317685310781289
 11
0.3486957133689845
 21
0.1342871999725727
 72
     1
 10
0.3486957133689845
 20
0.1342871999725725
 11
0.3507479620977905
 21
0.1356864604694859
 72
     1
 10
0.35074796209779
 20
0.1356864604694859
 11
0.3548524595554018
 21
0.1387648335626952
 72
     1
 10
0.3548524595554015
 20
0.1387648335626952
 11
0.3605427855761835
 21
0.1428693310203079
 72
     1
 10
0.3605427855761842
 20
0.1428693310203079
 11
0.3668860998288565
 21
0.1476268167098129
 72
     1
 10
0.3668860998288568
 20
0.1476268167098129
 11
0.373322698114659
 21
0.1522910183661906
 72
     1
 10
0.373322698114658
 20
0.1522910183661908
 11
0.3791995922016947
 21
0.1565820838900582
 72
     1
 10
0.3791995922016946
 20
0.1565820838900582
 11
0.3836772257918156
 21
0.1599403090826502
 72
     1
 10
0.3836772257918159
 20
0.1599403090826503
 11
0.386195894686261
 21
0.1618059897452011
 72
     1
 10
0.3861958946862609
 20
0.1618059897452011
 11
0.3873153030837921
 21
0.1604067292482882
 72
     1
 10
0.3873153030837915
 20
0.1604067292482878
 11
0.3894608358457238
 21
0.1577947763207163
 72
     1
 10
0.3894608358457248
 20
0.1577947763207165
 11
0.3925392089389353
 21
0.1541566990287417
 72
     1
 10
0.3925392089389348
 20
0.1541566990287417
 11
0.396457138330292
 21
0.149492497372364
 72
     1
 10
0.3964571383302933
 20
0.149492497372364
 11
0.4009347719204161
 21
0.1442685915172211
 72
     1
 10
0.4009347719204146
 20
0.1442685915172209
 11
0.4057855416430466
 21
0.138391697430185
 72
     1
 10
0.4057855416430463
 20
0.1383916974301853
 11
0.4109161634650628
 21
0.1322349512437666
 72
     1
 10
0.410916163465064
 20
0.1322349512437666
 11
0.4162333533533335
 21
0.1259849210242201
 72
     1
 10
0.4162333533533334
 20
0.1259849210242201
 11
0.4215505432416044
 21
0.1196416067715466
 72
     1
 10
0.4215505432416045
 20
0.1196416067715466
 11
0.4265878810304927
 21
0.113671428651383
 72
     1
 10
0.4265878810304931
 20
0.1136714286513832
 11
0.4312520826868704
 21
0.1079811026306024
 72
     1
 10
0.4312520826868696
 20
0.1079811026306024
 11
0.4355431482107378
 21
0.1029437648417141
 72
     1
 10
0.435543148210738
 20
0.1029437648417139
 11
0.4390879414695842
 21
0.0987459833509739
 72
     1
 10
0.4390879414695843
 20
0.0987459833509741
 11
0.4417931784302841
 21
0.0954810421915098
 72
     1
 10
0.4417931784302845
 20
0.0954810421915096
 11
0.4435655750597076
 21
0.0934287934627037
 72
     1
 10
0.4435655750597074
 20
0.0934287934627039
 11
0.4442185632915993
 21
0.0926825211976832
 72
     1
 10
0.4442185632915985
 20
0.0926825211976832
 11
0.4743493059918004
 21
0.0926825211976832
 72
     1
 10
0.4743493059918001
 20
0.0926825211976832
 11
0.4753754303562029
 21
0.0926825211976832
 72
     1
 10
0.4753754303562033
 20
0.0926825211976832
 11
0.5008419714000258
 21
0.0926825211976832
 72
     1
 10
0.5008419714000265
 20
0.0926825211976832
 11
0.5014949596319184
 21
0.0939884976614689
 72
     1
 10
0.501494959631919
 20
0.0939884976614688
 11
0.5031740722282155
 21
0.0973467228540609
 72
     1
 10
0.503174072228215
 20
0.0973467228540612
 11
0.5055061730564038
 21
0.1021042085435666
 72
     1
 10
0.505506173056403
 20
0.1021042085435665
 11
0.5083046940502291
 21
0.1077012505312196
 72
     1
 10
0.5083046940502292
 20
0.1077012505312194
 11
0.5111032150440553
 21
0.1134848605851279
 72
     1
 10
0.5111032150440549
 20
0.1134848605851281
 11
0.5137151679716264
 21
0.1186154824071433
 72
     1
 10
0.5137151679716277
 20
0.1186154824071433
 11
0.5156741326673071
 21
0.1226266958316283
 72
     1
 10
0.5156741326673076
 20
0.122626695831628
 11
0.5167002570317104
 21
0.1247722285935621
 72
     1
 10
0.5167002570317103
 20
0.1247722285935622
 11
0.5180062334954961
 21
0.1247722285935622
 72
     1
 10
0.5180062334954961
 20
0.1247722285935622
 11
0.5207114704561957
 21
0.1247722285935622
 72
     1
 10
0.5207114704561944
 20
0.1247722285935622
 11
0.5246293998475517
 21
0.1247722285935622
 72
     1
 10
0.5246293998475525
 20
0.1247722285935622
 11
0.5295734536033125
 21
0.1247722285935622
 72
     1
 10
0.5295734536033115
 20
0.1247722285935622
 11
0.5352637796240919
 21
0.1247722285935622
 72
     1
 10
0.5352637796240929
 20
0.1247722285935622
 11
0.5415138098436386
 21
0.1247722285935622
 72
     1
 10
0.5415138098436394
 20
0.1247722285935622
 11
0.5482302602288245
 21
0.1247722285935622
 72
     1
 10
0.5482302602288236
 20
0.1247722285935622
 11
0.5551332786802616
 21
0.1247722285935622
 72
     1
 10
0.5551332786802608
 20
0.1247722285935622
 11
0.5620362971317004
 21
0.1247722285935622
 72
     1
 10
0.5620362971317015
 20
0.1247722285935622
 11
0.5687527475168847
 21
0.1247722285935622
 72
     1
 10
0.5687527475168839
 20
0.1247722285935622
 11
0.5750027777364317
 21
0.1247722285935622
 72
     1
 10
0.5750027777364322
 20
0.1247722285935622
 11
0.5806931037572126
 21
0.1247722285935622
 72
     1
 10
0.5806931037572119
 20
0.1247722285935622
 11
0.585637157512972
 21
0.1247722285935622
 72
     1
 10
0.5856371575129727
 20
0.1247722285935622
 11
0.5895550869043299
 21
0.1247722285935622
 72
     1
 10
0.5895550869043289
 20
0.1247722285935622
 11
0.5922603238650286
 21
0.1247722285935622
 72
     1
 10
0.5922603238650291
 20
0.1247722285935622
 11
0.5935663003288148
 21
0.1247722285935622
 72
     1
 10
0.5935663003288148
 20
0.1247722285935622
 11
0.5945924246932176
 21
0.1226266958316281
 72
     1
 10
0.5945924246932175
 20
0.122626695831628
 11
0.5965513893888953
 21
0.1186154824071431
 72
     1
 10
0.5965513893888957
 20
0.1186154824071433
 11
0.5991633423164672
 21
0.1134848605851281
 72
     1
 10
0.5991633423164667
 20
0.1134848605851281
 11
0.6019618633102946
 21
0.1077012505312196
 72
     1
 10
0.6019618633102959
 20
0.1077012505312194
 11
0.604760384304122
 21
0.1021042085435664
 72
     1
 10
0.6047603843041221
 20
0.1021042085435665
 11
0.6070924851323109
 21
0.0973467228540611
 72
     1
 10
0.6070924851323101
 20
0.0973467228540612
 11
0.6087715977286067
 21
0.0939884976614691
 72
     1
 10
0.6087715977286062
 20
0.0939884976614688
 11
0.609424585960498
 21
0.0926825211976832
 72
     1
 10
0.6094245859604986
 20
0.0926825211976832
 11
0.6363836715343633
 21
0.0926825211976832
 72
     1
 10
0.6363836715343641
 20
0.0926825211976832
 11
0.5671669189537184
 21
0.2277578011663825
 72
     1
 10
0.5671669189537179
 20
0.2277578011663825
 11
0.5656743744236758
 21
0.2277578011663825
 97
        0
 75
     0
 76
     1
 98
        1
 10
-0.3743130907707726
 20
-0.2500502867693841
450
        0
451
        0
460
0.0
461
0.0
452
        0
462
0.0
453
        0
470

1001
ACAD
1010
0.0
1020
0.0
1030
0.0
  0
HATCH
  5
116C7
330
1123A
100
AcDbEntity
  8
Kawneer Logo-English
100
AcDbHatch
 10
0.0
 20
0.0
 30
0.0
210
0.0
220
0.0
230
1.0
  2
SOLID
 70
     1
 71
     0
 91
        1
 92
        1
 93
       69
 72
     1
 10
0.8092389849197205
 20
0.2277578011663825
 11
0.778921674153266
 21
0.1309289747799811
 72
     1
 10
0.778921674153267
 20
0.1309289747799809
 11
0.7781754018882468
 21
0.1287834420180468
 72
     1
 10
0.7781754018882468
 20
0.1287834420180467
 11
0.7776156976894812
 21
0.1270110453886236
 72
     1
 10
0.7776156976894813
 20
0.1270110453886237
 11
0.7771492775238438
 21
0.1253319327923275
 72
     1
 10
0.7771492775238436
 20
0.1253319327923274
 11
0.7766828573582045
 21
0.1238393882622867
 72
     1
 10
0.7766828573582046
 20
0.1238393882622866
 11
0.7764030052588217
 21
0.1248655126266895
 72
     1
 10
0.776403005258822
 20
0.1248655126266896
 11
0.7761231531594392
 21
0.1259849210242202
 72
     1
 10
0.7761231531594391
 20
0.1259849210242201
 11
0.7759365850931844
 21
0.1268244773223681
 72
     1
 10
0.7759365850931843
 20
0.1268244773223682
 11
0.7758433010600562
 21
0.1271976134548783
 72
     1
 10
0.7758433010600552
 20
0.1271976134548783
 11
0.7755634489606744
 21
0.1280371697530267
 72
     1
 10
0.775563448960674
 20
0.1280371697530267
 11
0.7750970287950349
 21
0.1291565781505569
 72
     1
 10
0.7750970287950363
 20
0.1291565781505568
 11
0.773977620397507
 21
0.1323282352768938
 72
     1
 10
0.7739776203975062
 20
0.1323282352768939
 11
0.7721119397349549
 21
0.1372722890326544
 72
     1
 10
0.7721119397349554
 20
0.1372722890326546
 11
0.7697798389067666
 21
0.1436156032853281
 72
     1
 10
0.769779838906767
 20
0.1436156032853281
 11
0.7670746019460673
 21
0.1511716099686602
 72
     1
 10
0.7670746019460668
 20
0.15117160996866
 11
0.7639962288528581
 21
0.1595671729501399
 72
     1
 10
0.7639962288528582
 20
0.15956717295014
 11
0.7606380036602665
 21
0.1686157241635125
 72
     1
 10
0.7606380036602652
 20
0.1686157241635125
 11
0.7572797784676718
 21
0.1778508434431408
 72
     1
 10
0.7572797784676726
 20
0.1778508434431408
 11
0.753921553275081
 21
0.187179246755896
 72
     1
 10
0.7539215532750814
 20
0.1871792467558961
 11
0.7505633280824898
 21
0.1962277979692689
 72
     1
 10
0.7505633280824902
 20
0.1962277979692689
 11
0.7474849549892814
 21
0.2046233609507488
 72
     1
 10
0.7474849549892797
 20
0.2046233609507488
 11
0.74477971802858
 21
0.2121793676340809
 72
     1
 10
0.7447797180285814
 20
0.2121793676340809
 11
0.7424476172003926
 21
0.2185226818867544
 72
     1
 10
0.7424476172003929
 20
0.2185226818867545
 11
0.7405819365378416
 21
0.2234667356425151
 72
     1
 10
0.7405819365378408
 20
0.2234667356425151
 11
0.7394625281403098
 21
0.2266383927688516
 72
     1
 10
0.7394625281403103
 20
0.2266383927688516
 11
0.7390893920078009
 21
0.2277578011663822
 72
     1
 10
0.7390893920078004
 20
0.2277578011663825
 11
0.7191266089185034
 21
0.2277578011663825
 72
     1
 10
0.7191266089185029
 20
0.2277578011663825
 11
0.6843316645619254
 21
0.1336342117406798
 72
     1
 10
0.6843316645619267
 20
0.1336342117406795
 11
0.6832122561643957
 21
0.130649122680598
 72
     1
 10
0.6832122561643961
 20
0.1306491226805981
 11
0.6823726998662476
 21
0.1282237378192816
 72
     1
 10
0.6823726998662468
 20
0.1282237378192818
 11
0.6817197116343549
 21
0.1260782050573481
 72
     1
 10
0.6817197116343552
 20
0.1260782050573481
 11
0.6811600074355896
 21
0.1241192403616695
 72
     1
 10
0.6811600074355884
 20
0.1241192403616695
 11
0.6808801553362055
 21
0.1250520806929446
 72
     1
 10
0.6808801553362059
 20
0.1250520806929445
 11
0.6805070192036949
 21
0.1261714890904751
 72
     1
 10
0.680507019203696
 20
0.1261714890904752
 11
0.6802271671043131
 21
0.1272908974880058
 72
     1
 10
0.680227167104313
 20
0.1272908974880061
 11
0.6798540309718037
 21
0.1286901579849195
 72
     1
 10
0.6798540309718031
 20
0.1286901579849194
 11
0.6794808948392922
 21
0.12980956638245
 72
     1
 10
0.6794808948392932
 20
0.1298095663824503
 11
0.6784547704748904
 21
0.1328879394756595
 72
     1
 10
0.67845477047489
 20
0.1328879394756595
 11
0.6769622259448497
 21
0.1378319932314196
 72
     1
 10
0.6769622259448496
 20
0.1378319932314196
 11
0.6750032612491701
 21
0.1441753074840938
 72
     1
 10
0.6750032612491697
 20
0.1441753074840937
 11
0.6725778763878547
 21
0.1516380301342981
 72
     1
 10
0.6725778763878556
 20
0.1516380301342981
 11
0.6699659234602841
 21
0.160033593115778
 72
     1
 10
0.6699659234602829
 20
0.160033593115778
 11
0.6671674024664549
 21
0.168988860296023
 72
     1
 10
0.6671674024664554
 20
0.168988860296023
 11
0.6642755974395012
 21
0.1782239795756509
 72
     1
 10
0.6642755974395019
 20
0.178223979575651
 11
0.6613837924125477
 21
0.1874590988552789
 72
     1
 10
0.6613837924125466
 20
0.1874590988552789
 11
0.6585852714187205
 21
0.1964143660355239
 72
     1
 10
0.6585852714187204
 20
0.1964143660355237
 11
0.6559733184911489
 21
0.2047166449838762
 72
     1
 10
0.6559733184911494
 20
0.2047166449838765
 11
0.6536412176629606
 21
0.2122726516672082
 72
     1
 10
0.6536412176629614
 20
0.2122726516672082
 11
0.6515889689341538
 21
0.2186159659198823
 72
     1
 10
0.6515889689341537
 20
0.2186159659198821
 11
0.6500964244041133
 21
0.2234667356425149
 72
     1
 10
0.6500964244041132
 20
0.2234667356425151
 11
0.6490703000397104
 21
0.2266383927688516
 72
     1
 10
0.6490703000397105
 20
0.2266383927688516
 11
0.6487904479403276
 21
0.2277578011663822
 72
     1
 10
0.648790447940328
 20
0.2277578011663825
 11
0.6237903270621445
 21
0.2277578011663825
 72
     1
 10
0.6237903270621437
 20
0.2277578011663825
 11
0.6676338226320932
 21
0.0926825211976832
 72
     1
 10
0.6676338226320926
 20
0.0926825211976832
 11
0.6922608073777669
 21
0.0926825211976832
 72
     1
 10
0.6922608073777666
 20
0.0926825211976832
 11
0.726029627369941
 21
0.1855001341596003
 72
     1
 10
0.7260296273699423
 20
0.1855001341596003
 11
0.7269624677012189
 21
0.1882986551534267
 72
     1
 10
0.7269624677012177
 20
0.1882986551534266
 11
0.7278020239993661
 21
0.1906307559816158
 72
     1
 10
0.727802023999367
 20
0.1906307559816159
 11
0.7284550122312589
 21
0.1927762887435496
 72
     1
 10
0.7284550122312581
 20
0.1927762887435495
 11
0.7290147164300237
 21
0.1947352534392281
 72
     1
 10
0.7290147164300232
 20
0.1947352534392282
 11
0.7298542727281716
 21
0.192216584544784
 72
     1
 10
0.729854272728173
 20
0.1922165845447839
 11
0.7306938290263214
 21
0.1894180635509575
 72
     1
 10
0.7306938290263206
 20
0.1894180635509575
 11
0.7318132374238499
 21
0.1863396904577483
 72
     1
 10
0.7318132374238511
 20
0.1863396904577481
 11
0.7331192138876387
 21
0.1827016131657736
 72
     1
 10
0.7331192138876382
 20
0.1827016131657737
 11
0.7654887733828987
 21
0.0926825211976834
 72
     1
 10
0.7654887733828986
 20
0.0926825211976832
 11
0.7895560539298075
 21
0.0926825211976832
 72
     1
 10
0.7895560539298075
 20
0.0926825211976832
 11
0.8341458217647785
 21
0.2277578011663825
 72
     1
 10
0.8341458217647783
 20
0.2277578011663825
 11
0.830601028505932
 21
0.2277578011663825
 72
     1
 10
0.8306010285059324
 20
0.2277578011663825
 11
0.8092389849197216
 21
0.2277578011663825
 97
        0
 75
     0
 76
     1
 98
        1
 10
-0.3743130907707726
 20
-0.2500502867693841
450
        0
451
        0
460
0.0
461
0.0
452
        0
462
0.0
453
        0
470

1001
ACAD
1010
0.0
1020
0.0
1030
0.0
  0
ENDBLK
  5
11247
330
1123A
100
AcDbEntity
  8
0
100
AcDbBlockEnd
  0
ENDSEC
  0
SECTION
  2
ENTITIES
  0
LINE
  5
5E22
330
6C
100
AcDbEntity
  8
DEFPOINTS
 62
   251
100
AcDbLine
 10
0.0
 20
0.0
 30
0.0
 11
17.0
 21
0.0
 31
0.0
  0
LINE
  5
5E23
330
6C
100
AcDbEntity
  8
DEFPOINTS
 62
   251
100
AcDbLine
 10
0.0
 20
0.0
 30
0.0
 11
0.0
 21
11.0
 31
0.0
  0
LWPOLYLINE
  5
5E25
330
6C
100
AcDbEntity
  8
FORMAT
100
AcDbPolyline
 90
        3
 70
     0
 43
0.0
 10
109.675907924647
 20
0.375
 10
0.375
 20
0.375
 10
0.375
 20
69.86732034386671
  0
LINE
  5
5E29
330
6C
100
AcDbEntity
  8
DEFPOINTS
 62
   251
100
AcDbLine
 10
1.375
 20
2.875
 30
0.0
 11
1.375
 21
0.0
 31
0.0
  0
LINE
  5
5E2A
330
6C
100
AcDbEntity
  8
DEFPOINTS
 62
   251
100
AcDbLine
 10
30.375
 20
2.375
 30
0.0
 11
0.0
 21
2.375
 31
0.0
  0
LINE
  5
5E2B
330
6C
100
AcDbEntity
  8
DEFPOINTS
 62
   251
100
AcDbLine
 10
1.375
 20
2.875
 30
0.0
 11
0.0
 21
2.875
 31
0.0
  0
LINE
  5
5E34
330
6C
100
AcDbEntity
  8
DEFPOINTS
 62
   251
100
AcDbLine
 10
0.375
 20
65.99999999999998
 30
0.0
 11
102.0
 21
65.99999999999998
 31
0.0
  0
LINE
  5
5E35
330
6C
100
AcDbEntity
  8
DEFPOINTS
 62
   251
100
AcDbLine
 10
102.0
 20
0.375
 30
0.0
 11
102.0
 21
65.99999999999998
 31
0.0
  0
LINE
  5
618F
330
6C
100
AcDbEntity
  8
DEFPOINTS
100
AcDbLine
 10
37.08151958734384
 20
11.375
 30
0.0
 11
101.6635441314041
 21
11.375
 31
0.0
  0
LINE
  5
6219
330
6C
100
AcDbEntity
  8
DEFPOINTS
100
AcDbLine
 10
50.37499999999289
 20
36.375
 30
0.0
 11
50.37499999999289
 21
0.375
 31
0.0
  0
LINE
  5
6365
330
6C
100
AcDbEntity
  8
DEFPOINTS
100
AcDbLine
 10
59.37499999999289
 20
36.375
 30
0.0
 11
59.37499999999289
 21
0.375
 31
0.0
  0
LINE
  5
643C
330
6C
100
AcDbEntity
  8
DEFPOINTS
100
AcDbLine
 10
68.37499999999282
 20
36.375
 30
0.0
 11
68.37499999999289
 21
0.375
 31
0.0
  0
LINE
  5
64A2
330
6C
100
AcDbEntity
  8
DEFPOINTS
100
AcDbLine
 10
77.3749999999929
 20
52.70018173757243
 30
0.0
 11
77.3749999999929
 21
0.375
 31
0.0
  0
LINE
  5
64EF
330
6C
100
AcDbEntity
  8
DEFPOINTS
100
AcDbLine
 10
86.37499999999286
 20
36.375
 30
0.0
 11
86.37499999999292
 21
0.375
 31
0.0
  0
LINE
  5
65BF
330
6C
100
AcDbEntity
  8
DEFPOINTS
100
AcDbLine
 10
95.37499999999289
 20
36.375
 30
0.0
 11
95.37499999999289
 21
0.375
 31
0.0
  0
LINE
  5
67E8
330
6C
100
AcDbEntity
  8
DEFPOINTS
 62
   251
100
AcDbLine
 10
0.375
 20
61.375
 30
0.0
 11
48.87500000000001
 21
61.375
 31
0.0
  0
LINE
  5
6E7F
330
6C
100
AcDbEntity
  8
DEFPOINTS
100
AcDbLine
 10
37.08151958734384
 20
7.375
 30
0.0
 11
101.6635441314041
 21
7.374999999999999
 31
0.0
  0
LINE
  5
6E80
330
6C
100
AcDbEntity
  8
DEFPOINTS
100
AcDbLine
 10
37.08151958734384
 20
18.375
 30
0.0
 11
101.6635441314041
 21
18.37499999999999
 31
0.0
  0
LINE
  5
6E82
330
6C
100
AcDbEntity
  8
DEFPOINTS
100
AcDbLine
 10
12.375
 20
65.99999999999998
 30
0.0
 11
12.375
 21
28.0443558132266
 31
0.0
  0
LINE
  5
6E83
330
6C
100
AcDbEntity
  8
DEFPOINTS
100
AcDbLine
 10
5.375
 20
65.99999999999998
 30
0.0
 11
5.375
 21
28.0443558132266
 31
0.0
  0
LINE
  5
6FCD
330
6C
100
AcDbEntity
  8
DEFPOINTS
100
AcDbLine
 10
41.37499999999288
 20
36.375
 30
0.0
 11
41.37499999999288
 21
0.375
 31
0.0
  0
LINE
  5
7076
330
6C
100
AcDbEntity
  8
DEFPOINTS
 62
   251
100
AcDbLine
 10
0.375
 20
52.375
 30
0.0
 11
48.87500000000001
 21
52.375
 31
0.0
  0
LINE
  5
749C
330
6C
100
AcDbEntity
  8
DEFPOINTS
 62
   251
100
AcDbLine
 10
0.375
 20
43.375
 30
0.0
 11
48.87500000000001
 21
43.375
 31
0.0
  0
LINE
  5
74B9
330
6C
100
AcDbEntity
  8
DEFPOINTS
 62
   251
100
AcDbLine
 10
0.375
 20
34.375
 30
0.0
 11
48.87499999999999
 21
34.375
 31
0.0
  0
LINE
  5
9780
330
6C
100
AcDbEntity
  8
DEFPOINTS
100
AcDbLine
 10
19.875
 20
65.99999999999998
 30
0.0
 11
19.87499999999998
 21
28.0443558132266
 31
0.0
  0
LINE
  5
AE05
330
6C
100
AcDbEntity
  8
DEFPOINTS
100
AcDbLine
 10
40.375
 20
65.99999999999998
 30
0.0
 11
40.375
 21
28.0443558132266
 31
0.0
  0
LINE
  5
AE06
330
6C
100
AcDbEntity
  8
DEFPOINTS
100
AcDbLine
 10
47.875
 20
65.99999999999998
 30
0.0
 11
47.87499999999998
 21
28.0443558132266
 31
0.0
  0
LINE
  5
AE07
330
6C
100
AcDbEntity
  8
DEFPOINTS
100
AcDbLine
 10
33.375
 20
65.99999999999998
 30
0.0
 11
33.375
 21
28.0443558132266
 31
0.0
  0
LINE
  5
B8EE
330
6C
100
AcDbEntity
  8
DEFPOINTS
100
AcDbLine
 10
37.08151958734384
 20
36.375
 30
0.0
 11
101.6635441314041
 21
36.375
 31
0.0
  0
LINE
  5
B8EF
330
6C
100
AcDbEntity
  8
DEFPOINTS
100
AcDbLine
 10
37.08151958734384
 20
29.375
 30
0.0
 11
101.6635441314041
 21
29.375
 31
0.0
  0
LINE
  5
B8F0
330
6C
100
AcDbEntity
  8
DEFPOINTS
100
AcDbLine
 10
37.08151958734384
 20
25.375
 30
0.0
 11
101.6635441314041
 21
25.375
 31
0.0
  0
LINE
  5
DA8F
330
6C
100
AcDbEntity
  8
DEFPOINTS
 62
   251
100
AcDbLine
 10
25.37499999999999
 20
7.375000000000002
 30
0.0
 11
25.375
 21
0.3750000000000029
 31
0.0
  0
POINT
  5
FFF7
330
6C
100
AcDbEntity
  8
INSERTION_PT
100
AcDbPoint
 10
19.54893111570561
 20
53.43096796587277
 30
0.0
  0
LINE
  5
FFF8
330
6C
100
AcDbEntity
  8
0
100
AcDbLine
 10
18.83888579894151
 20
48.24296796587276
 30
0.0
 11
12.67388653612625
 21
48.24287880671404
 31
0.0
  0
LINE
  5
FFF9
330
6C
100
AcDbEntity
  8
0
100
AcDbLine
 10
22.17388579894151
 20
47.96187474281984
 30
0.0
 11
12.39288653612625
 21
47.96187474281984
 31
0.0
  0
DIMENSION
  5
FFFA
330
6C
100
AcDbEntity
  8
DIME
100
AcDbDimension
280
     0
  2
*D6
 10
18.67393111570561
 20
59.90755404479902
 30
0.0
 11
15.67386424633656
 21
60.13519729172944
 31
0.0
 70
    32
 71
     5
 42
6.000133738738107
 73
     0
 74
     0
 75
     0
  3
EXT_ON-ON
100
AcDbAlignedDimension
 13
12.67379737696751
 23
57.74287880671405
 33
0.0
 14
18.67393111570561
 24
57.74287880671405
 34
0.0
100
AcDbRotatedDimension
  0
LWPOLYLINE
  5
FFFB
330
6C
100
AcDbEntity
  8
0
100
AcDbPolyline
 90
        7
 70
     1
 43
0.0
 10
18.5620022184655
 20
54.13130319386158
 10
18.5620022184655
 20
54.85480319386158
 10
18.4370022184655
 20
54.85480319386158
 10
18.4370022184655
 20
54.13130319386159
 42
0.4142135623730978
 10
18.5620022184655
 20
54.00630319386158
 10
19.2855022184655
 20
54.00630319386158
 10
19.2855022184655
 20
54.13130319386159
  0
LINE
  5
FFFC
330
6C
100
AcDbEntity
  8
0
100
AcDbLine
 10
12.91029682050647
 20
48.48273514028198
 30
0.0
 11
18.47368687543007
 21
54.04284190184899
 31
0.0
  0
LINE
  5
FFFD
330
6C
100
AcDbEntity
  8
0
100
AcDbLine
 10
18.56220040463608
 20
54.13130319386158
 30
0.0
 11
18.85803976937063
 21
54.42696796587276
 31
0.0
  0
LWPOLYLINE
  5
FFFE
330
6C
100
AcDbEntity
  8
0
100
AcDbPolyline
 90
        6
 70
     0
 43
0.0
 10
19.06353999122659
 20
57.74287880671405
 10
15.77396042414166
 20
57.74287880671405
 10
15.72394042414166
 20
57.94285880671405
 10
15.62396042414166
 20
57.54287880671404
 10
15.57396042414166
 20
57.74287880671405
 10
12.07821205072554
 20
57.74287880671405
  0
LINE
  5
FFFF
330
6C
100
AcDbEntity
  8
0
100
AcDbLine
 10
12.67388653612624
 20
55.74287880671404
 30
0.0
 11
12.67379893285249
 21
57.74287880671405
 31
0.0
  0
LINE
  5
10000
330
6C
100
AcDbEntity
  8
0
100
AcDbLine
 10
12.67388653612624
 20
54.40787880671404
 30
0.0
 11
12.67388653612625
 21
48.2429233862934
 31
0.0
  0
LINE
  5
10001
330
6C
100
AcDbEntity
  8
0
100
AcDbLine
 10
12.39288653612624
 20
57.74287880671405
 30
0.0
 11
12.39288653612625
 21
47.96187474281984
 31
0.0
  0
LINE
  5
10002
330
6C
100
AcDbEntity
  8
0
100
AcDbLine
 10
12.39288653612624
 20
47.9619233862934
 30
0.0
 11
12.82208698324061
 21
48.39112383340776
 31
0.0
  0
DIMENSION
  5
10003
330
6C
100
AcDbEntity
  8
DIME
100
AcDbDimension
280
     0
  2
*D7
 10
22.17388579894151
 20
58.65755404479902
 30
0.0
 11
21.1738857989415
 21
58.88690261232972
 31
0.0
 70
    32
  1
DLO
 71
     5
 42
2.0
 73
     0
 74
     0
 75
     0
  3
EXT_ON-OFF
100
AcDbAlignedDimension
 13
20.1738857989415
 23
54.24296796587277
 33
0.0
 14
22.17388579894151
 24
54.667454196074
 34
0.0
100
AcDbRotatedDimension
  0
DIMENSION
  5
10004
330
6C
100
AcDbEntity
  8
DIME
100
AcDbDimension
280
     0
  2
*D8
 10
22.17388579894151
 20
59.28255404479902
 30
0.0
 11
20.42390845732356
 21
59.50755404479902
 31
0.0
 70
    32
  1
F.W.
 71
     5
 42
3.499954683235891
 73
     0
 74
     0
 75
     0
  3
EXT_ON-OFF
100
AcDbAlignedDimension
 13
18.67393111570561
 23
57.74287880671405
 33
0.0
 14
22.17388579894151
 24
54.667454196074
 34
0.0
100
AcDbRotatedDimension
  0
DIMENSION
  5
10005
330
6C
100
AcDbEntity
  8
DIME
100
AcDbDimension
280
     0
  2
*D9
 10
22.17388579894151
 20
59.90755404479902
 30
0.0
 11
20.42390845732356
 21
60.13690261232972
 31
0.0
 70
    32
  1
O.D.
 71
     5
 42
3.499954683235891
 73
     0
 74
     0
 75
     0
  3
EXT_ON-OFF
100
AcDbAlignedDimension
 13
18.67393111570561
 23
57.74287880671405
 33
0.0
 14
22.17388579894151
 24
54.667454196074
 34
0.0
100
AcDbRotatedDimension
  0
DIMENSION
  5
10006
330
6C
100
AcDbEntity
  8
DIME
100
AcDbDimension
280
     0
  2
*D10
 10
23.30304366077957
 20
54.24296796587278
 30
0.0
 11
23.07378035927888
 21
54.99292338629341
 31
0.0
 70
    32
 71
     5
 42
1.499910840841252
 73
     0
 74
     0
 75
     0
  3
EXT_ON-ON
100
AcDbAlignedDimension
 13
18.67388958397834
 23
55.74287880671404
 33
0.0
 14
22.17388579894151
 24
54.24296796587278
 34
0.0
 50
270.0
100
AcDbRotatedDimension
  0
LINE
  5
10007
330
6C
100
AcDbEntity
  8
0
100
AcDbLine
 10
18.67388653612624
 20
54.24292341260251
 30
0.0
 11
18.67388653612624
 21
57.74287880671405
 31
0.0
  0
LINE
  5
10008
330
6C
100
AcDbEntity
  8
0
100
AcDbLine
 10
18.85788653612624
 20
54.42696796587276
 30
0.0
 11
18.85788653612624
 21
57.74287880671405
 31
0.0
  0
DIMENSION
  5
10009
330
6C
100
AcDbEntity
  8
DIME
100
AcDbDimension
280
     0
  2
*D11
 10
20.1738857989415
 20
58.65755404479902
 30
0.0
 11
19.42390845732356
 21
58.88681734629971
 31
0.0
 70
    32
 71
     5
 42
1.499954683235891
 73
     0
 74
     0
 75
     0
  3
EXT_ON-ON
100
AcDbAlignedDimension
 13
18.67393111570561
 23
57.74287880671405
 33
0.0
 14
20.1738857989415
 24
54.24296796587277
 34
0.0
100
AcDbRotatedDimension
  0
LWPOLYLINE
  5
1000A
330
6C
100
AcDbEntity
  8
0
100
AcDbPolyline
 90
        6
 70
     0
 43
0.0
 10
22.17388579894151
 20
54.66863115211261
 10
22.17388579894151
 20
51.3442188099268
 10
22.3738657989415
 20
51.2941988099268
 10
21.9738857989415
 20
51.19421880992679
 10
22.17388579894151
 20
51.14421880992679
 10
22.17388579894151
 20
47.6964738059402
  0
LINE
  5
1000B
330
6C
100
AcDbEntity
  8
0
100
AcDbLine
 10
18.6739311157056
 20
54.24296796587277
 30
0.0
 11
22.17388579894151
 21
54.24296796587277
 31
0.0
  0
LINE
  5
1000C
330
6C
100
AcDbEntity
  8
0
100
AcDbLine
 10
18.85788653612624
 20
54.42696796587276
 30
0.0
 11
22.17388579894151
 21
54.42696796587276
 31
0.0
  0
LINE
  5
1000F
330
6C
100
AcDbEntity
  8
0
100
AcDbLine
 10
20.1738857989415
 20
48.24296796587276
 30
0.0
 11
22.17388579894151
 21
48.24287880671404
 31
0.0
  0
LEADER
  5
10012
330
6C
100
AcDbEntity
  8
TEXT
100
AcDbLeader
  3
STANDARD
 76
     3
 10
18.46545444136851
 20
54.15829130505339
 30
0.0
 10
12.08355322649875
 20
52.7788822041387
 30
0.0
 10
11.89605322649875
 20
52.7788822041387
 30
0.0
  0
LEADER
  5
10013
330
6C
100
AcDbEntity
  8
TEXT
100
AcDbLeader
  3
STANDARD
 76
     3
 10
12.79119550747821
 20
48.68254932249151
 30
0.0
 10
11.92788791874329
 20
48.4814580306762
 30
0.0
 10
11.74038791874329
 20
48.4814580306762
 30
0.0
  0
MTEXT
  5
10014
102
{ACAD_XDICTIONARY
360
11432
102
}
330
6C
100
AcDbEntity
  8
TEXT
100
AcDbMText
 10
9.662253642106307
 20
52.66576492493237
 30
0.0
 40
0.25
 41
2.035117137805199
 46
0.0
 71
     7
 72
     5
  1
\pxqr; BR-??\P0.125 ALUM.   BRAKE
 73
     1
 44
1.0
  0
MTEXT
  5
10015
102
{ACAD_XDICTIONARY
360
11434
102
}
330
6C
100
AcDbEntity
  8
TEXT
100
AcDbMText
 10
9.411172489415982
 20
48.36834075146988
 30
0.0
 40
0.25
 41
2.236617111277821
 46
0.0
 71
     7
 72
     5
  1
\pxqr; BR-??\P0.125 ALUM.   BRAKE
 73
     1
 44
1.0
  0
LWPOLYLINE
  5
10017
330
6C
100
AcDbEntity
  8
0
100
AcDbPolyline
 90
        7
 70
     1
 43
0.0
 10
12.91029682050647
 20
48.35469033164231
 10
19.28530140008584
 20
48.35469033164231
 10
19.28530140008584
 20
48.47969033164232
 10
12.91029682050647
 20
48.47969033164232
 10
12.91029682050647
 20
54.85469499906163
 10
12.78529682050647
 20
54.85471423998879
 10
12.78529682050647
 20
48.47969033164231
 42
0.4142135623730947
  0
DIMENSION
  5
10018
330
6C
100
AcDbEntity
  8
DIME
100
AcDbDimension
280
     0
  2
*D2
 10
23.92807203043321
 20
57.74287880671405
 30
0.0
 11
23.7030720304332
 21
55.99292338629341
 31
0.0
 70
    32
  1
F.W.
 71
     5
 42
3.49991084084128
 73
     0
 74
     0
 75
     0
  3
EXT_ON-OFF
100
AcDbAlignedDimension
 13
22.17388579894151
 23
54.24296796587277
 33
0.0
 14
19.06353999122659
 24
57.74287880671405
 34
0.0
 50
90.0
100
AcDbRotatedDimension
  0
DIMENSION
  5
10019
330
6C
100
AcDbEntity
  8
DIME
100
AcDbDimension
280
     0
  2
*D3
 10
23.30304075534797
 20
57.74287880671405
 30
0.0
 11
23.07369218781726
 21
56.74287880671404
 31
0.0
 70
    32
  1
DLO
 71
     5
 42
2.000000000000007
 73
     0
 74
     0
 75
     0
  3
EXT_ON-OFF
100
AcDbAlignedDimension
 13
18.67388653612624
 23
55.74287880671404
 33
0.0
 14
18.67393111570561
 24
57.74287880671405
 34
0.0
 50
90.0
100
AcDbRotatedDimension
  0
DIMENSION
  5
1001A
330
6C
100
AcDbEntity
  8
DIME
100
AcDbDimension
280
     0
  2
*D4
 10
24.55303250812532
 20
57.74287880671405
 30
0.0
 11
24.32368394059461
 21
55.99292338629341
 31
0.0
 70
    32
  1
O.D.
 71
     5
 42
3.49991084084128
 73
     0
 74
     0
 75
     0
  3
EXT_ON-OFF
100
AcDbAlignedDimension
 13
22.17388579894151
 23
54.24296796587277
 33
0.0
 14
19.06353999122659
 24
57.74287880671405
 34
0.0
 50
90.0
100
AcDbRotatedDimension
  0
INSERT
  5
1001B
330
6C
100
AcDbEntity
  8
0
100
AcDbBlockReference
  2
B601CG010
 10
14.42388153612629
 20
54.75210724218209
 30
0.0
 50
270.0
  0
INSERT
  5
1001C
330
6C
100
AcDbEntity
  8
0
100
AcDbBlockReference
  2
B601CG010
 10
19.18311423440955
 20
49.99296296587282
 30
0.0
 41
-1.0
  0
DIMENSION
  5
1001D
330
6C
100
AcDbEntity
  8
DIME
100
AcDbDimension
280
     0
  2
*D5
 10
24.55302617681925
 20
54.24296796587277
 30
0.0
 11
24.32538292988882
 21
51.24292338629341
 31
0.0
 70
    32
 71
     5
 42
6.000089159158726
 73
     0
 74
     0
 75
     0
  3
EXT_ON-ON
100
AcDbAlignedDimension
 13
22.17388579894151
 23
48.24287880671404
 33
0.0
 14
22.17388579894151
 24
54.24296796587277
 34
0.0
 50
90.0
100
AcDbRotatedDimension
  0
MTEXT
  5
100EF
330
6C
100
AcDbEntity
  8
TEXT
100
AcDbMText
 10
39.45820447953991
 20
59.08435260919148
 30
0.0
 40
0.25
 41
9.478949894201232
 46
0.0
 71
     1
 72
     5
  1
601CG010  FEMALE EXPANSION MULLION HALF
 73
     1
 44
1.0
  0
MTEXT
  5
100F7
330
6C
100
AcDbEntity
  8
TEXT
100
AcDbMText
 10
17.30114674787164
 20
47.49861631038864
 30
0.0
 40
0.375
 41
6.5
 46
0.0
 71
     2
 72
     5
  1
\P90%%D OUTSIDE CORNER\PWITH BRAKE METAL
 73
     1
 44
1.0
  0
POINT
  5
1027A
330
6C
100
AcDbEntity
  8
INSERTION_PT
100
AcDbPoint
 10
46.04089424705813
 20
52.30930674433663
 30
0.0
  0
LINE
  5
1027B
330
6C
100
AcDbEntity
  8
0
100
AcDbLine
 10
45.33084893029402
 20
57.49730674433664
 30
0.0
 11
39.16584966747877
 21
57.49739590349536
 31
0.0
  0
LINE
  5
1027C
330
6C
100
AcDbEntity
  8
0
100
AcDbLine
 10
48.66584893029402
 20
57.77825799937541
 30
0.0
 11
38.88484966747877
 21
57.77839996738956
 31
0.0
  0
DIMENSION
  5
1027D
330
6C
100
AcDbEntity
  8
DIME
100
AcDbDimension
280
     0
  2
*D12
 10
45.16589424705813
 20
45.83272066541037
 30
0.0
 11
42.16582737768908
 21
46.06036391234079
 31
0.0
 70
    32
 71
     5
 42
6.000133738738107
 73
     0
 74
     0
 75
     0
  3
EXT_ON-ON
100
AcDbAlignedDimension
 13
39.16576050832003
 23
47.99739590349536
 33
0.0
 14
45.16589424705813
 24
47.99739590349536
 34
0.0
100
AcDbRotatedDimension
  0
LWPOLYLINE
  5
1027E
330
6C
100
AcDbEntity
  8
0
100
AcDbPolyline
 90
        7
 70
     1
 43
0.0
 10
39.27775127290196
 20
57.26092144296045
 10
39.27775127290196
 20
50.88591686338109
 10
39.40275127290196
 20
50.88591686338109
 10
39.40275127290196
 20
57.26092144296045
 10
45.77775594032128
 20
57.26092144296045
 10
45.77777518124843
 20
57.38592144296045
 10
39.40275127290196
 20
57.38592144296045
 42
0.4142135623730947
  0
LINE
  5
1027F
330
6C
100
AcDbEntity
  8
0
100
AcDbLine
 10
39.40275127290196
 20
57.25704853884275
 30
0.0
 11
44.96572682008587
 21
51.6973560403893
 31
0.0
  0
LINE
  5
10280
330
6C
100
AcDbEntity
  8
0
100
AcDbLine
 10
45.05437486146905
 20
51.60876031558333
 30
0.0
 11
45.35000290072316
 21
51.31330674433663
 31
0.0
  0
LWPOLYLINE
  5
10281
330
6C
100
AcDbEntity
  8
0
100
AcDbPolyline
 90
        6
 70
     0
 43
0.0
 10
45.56554795980774
 20
47.99739590349536
 10
42.26592355549418
 20
47.99739590349536
 10
42.21590355549418
 20
47.79741590349535
 10
42.11592355549417
 20
48.19739590349536
 10
42.06592355549418
 20
47.99739590349536
 10
38.66134915825981
 20
47.99739590349536
  0
LINE
  5
10282
330
6C
100
AcDbEntity
  8
0
100
AcDbLine
 10
39.16584966747876
 20
49.99739590349536
 30
0.0
 11
39.16576050832003
 21
47.99739590349536
 31
0.0
  0
LINE
  5
10283
330
6C
100
AcDbEntity
  8
0
100
AcDbLine
 10
39.16584966747876
 20
51.33239590349536
 30
0.0
 11
39.16584966747877
 21
57.497351323916
 31
0.0
  0
LINE
  5
10284
330
6C
100
AcDbEntity
  8
0
100
AcDbLine
 10
38.88484966747877
 20
47.99739590349536
 30
0.0
 11
38.88484966747877
 21
57.77839996738956
 31
0.0
  0
LINE
  5
10285
330
6C
100
AcDbEntity
  8
0
100
AcDbLine
 10
38.88484966747877
 20
57.778351323916
 30
0.0
 11
39.3141273777168
 21
57.34907361367796
 31
0.0
  0
DIMENSION
  5
10286
330
6C
100
AcDbEntity
  8
DIME
100
AcDbDimension
280
     0
  2
*D13
 10
48.66584893029402
 20
47.08272066541037
 30
0.0
 11
47.66584893029402
 21
47.31206923294106
 31
0.0
 70
    32
  1
DLO
 71
     5
 42
1.999999999999992
 73
     0
 74
     0
 75
     0
  3
EXT_ON-OFF
100
AcDbAlignedDimension
 13
46.66584893029402
 23
51.49730674433663
 33
0.0
 14
48.66584893029402
 24
51.03646557356466
 34
0.0
100
AcDbRotatedDimension
  0
DIMENSION
  5
10287
330
6C
100
AcDbEntity
  8
DIME
100
AcDbDimension
280
     0
  2
*D14
 10
48.66584893029402
 20
46.45772066541037
 30
0.0
 11
46.91587158867608
 21
46.68272066541037
 31
0.0
 70
    32
  1
F.W.
 71
     5
 42
3.499954683235884
 73
     0
 74
     0
 75
     0
  3
EXT_ON-OFF
100
AcDbAlignedDimension
 13
45.16589424705813
 23
47.99739590349536
 33
0.0
 14
48.66584893029402
 24
51.03646557356466
 34
0.0
100
AcDbRotatedDimension
  0
DIMENSION
  5
10288
330
6C
100
AcDbEntity
  8
DIME
100
AcDbDimension
280
     0
  2
*D15
 10
48.66584893029402
 20
45.83272066541037
 30
0.0
 11
46.91587158867608
 21
46.06206923294106
 31
0.0
 70
    32
  1
O.D.
 71
     5
 42
3.499954683235884
 73
     0
 74
     0
 75
     0
  3
EXT_ON-OFF
100
AcDbAlignedDimension
 13
45.16589424705813
 23
47.99739590349536
 33
0.0
 14
48.66584893029402
 24
51.03646557356466
 34
0.0
100
AcDbRotatedDimension
  0
DIMENSION
  5
10289
330
6C
100
AcDbEntity
  8
DIME
100
AcDbDimension
280
     0
  2
*D16
 10
51.04497842513838
 20
47.99730707850431
 30
0.0
 11
50.8156582259158
 21
49.74729134525643
 31
0.0
 70
    32
  1
O.D.
 71
     5
 42
3.499961098197012
 73
     0
 74
     0
 75
     0
  3
EXT_ON-OFF
100
AcDbAlignedDimension
 13
48.66584893029402
 23
51.49730674433663
 33
0.0
 14
45.56554795980774
 24
47.99739590349536
 34
0.0
 50
89.99907119961932
100
AcDbRotatedDimension
  0
DIMENSION
  5
1028A
330
6C
100
AcDbEntity
  8
DIME
100
AcDbDimension
280
     0
  2
*D17
 10
50.41997842522047
 20
47.99731721014476
 30
0.0
 11
50.195006793528
 21
49.7473014064039
 31
0.0
 70
    32
  1
F.W.
 71
     5
 42
3.499961098197012
 73
     0
 74
     0
 75
     0
  3
EXT_ON-OFF
100
AcDbAlignedDimension
 13
48.66584893029402
 23
51.49730674433663
 33
0.0
 14
45.56554795980774
 24
47.99739590349536
 34
0.0
 50
89.99907119961932
100
AcDbRotatedDimension
  0
DIMENSION
  5
1028B
330
6C
100
AcDbEntity
  8
DIME
100
AcDbDimension
280
     0
  2
*D18
 10
49.79500679213209
 20
51.49730674433661
 30
0.0
 11
49.56574349063139
 21
50.74735132391599
 31
0.0
 70
    32
 71
     5
 42
1.499910840841259
 73
     0
 74
     0
 75
     0
  3
EXT_ON-ON
100
AcDbAlignedDimension
 13
45.16585271533086
 23
49.99739590349536
 33
0.0
 14
48.66584893029402
 24
51.49730674433661
 34
0.0
 50
90.0
100
AcDbRotatedDimension
  0
DIMENSION
  5
1028C
330
6C
100
AcDbEntity
  8
DIME
100
AcDbDimension
280
     0
  2
*D19
 10
49.79497146555611
 20
47.99732734189805
 30
0.0
 11
49.56563910862776
 21
48.99732781986401
 31
0.0
 70
    32
  1
DLO
 71
     5
 42
1.999993520427594
 73
     0
 74
     0
 75
     0
  3
EXT_ON-OFF
100
AcDbAlignedDimension
 13
45.16585271533086
 23
49.99739590349536
 33
0.0
 14
45.56554795980774
 24
47.99739590349536
 34
0.0
 50
89.99907119961932
100
AcDbRotatedDimension
  0
LINE
  5
1028D
330
6C
100
AcDbEntity
  8
0
100
AcDbLine
 10
45.16584966747876
 20
51.49735129760689
 30
0.0
 11
45.16589424705813
 21
47.99739590349536
 31
0.0
  0
LINE
  5
1028E
330
6C
100
AcDbEntity
  8
0
100
AcDbLine
 10
45.34984966747876
 20
51.31330674433663
 30
0.0
 11
45.34984966747876
 21
47.99739590349536
 31
0.0
  0
DIMENSION
  5
1028F
330
6C
100
AcDbEntity
  8
DIME
100
AcDbDimension
280
     0
  2
*D20
 10
46.66584893029402
 20
47.08272066541037
 30
0.0
 11
45.91587158867608
 21
47.31198396691104
 31
0.0
 70
    32
 71
     5
 42
1.499954683235891
 73
     0
 74
     0
 75
     0
  3
EXT_ON-ON
100
AcDbAlignedDimension
 13
45.16589424705813
 23
47.99739590349536
 33
0.0
 14
46.66584893029402
 24
51.49730674433663
 34
0.0
100
AcDbRotatedDimension
  0
LWPOLYLINE
  5
10290
330
6C
100
AcDbEntity
  8
0
100
AcDbPolyline
 90
        6
 70
     0
 43
0.0
 10
48.66584893029402
 20
51.03528861752606
 10
48.66584893029402
 20
54.3960559002826
 10
48.86582893029402
 20
54.4460759002826
 10
48.46584893029401
 20
54.5460559002826
 10
48.66584893029402
 20
54.5960559002826
 10
48.66584893029402
 20
57.96217860854194
  0
DIMENSION
  5
10291
330
6C
100
AcDbEntity
  8
DIME
100
AcDbDimension
280
     0
  2
*D21
 10
51.04499563946853
 20
51.49726817688215
 30
0.0
 11
50.81740102516488
 21
54.49731644591238
 31
0.0
 70
    32
 71
     5
 42
6.000089158370364
 73
     0
 74
     0
 75
     0
  3
EXT_ON-ON
100
AcDbAlignedDimension
 13
48.66584893029402
 23
57.49739590349536
 33
0.0
 14
48.66584893029402
 24
51.49730674433663
 34
0.0
 50
89.99907119961932
100
AcDbRotatedDimension
  0
LINE
  5
10292
330
6C
100
AcDbEntity
  8
0
100
AcDbLine
 10
45.16589424705812
 20
51.49730674433663
 30
0.0
 11
48.66584893029402
 21
51.49730674433663
 31
0.0
  0
LINE
  5
10293
330
6C
100
AcDbEntity
  8
0
100
AcDbLine
 10
45.34984966747876
 20
51.31330674433663
 30
0.0
 11
48.66584893029402
 21
51.31330674433663
 31
0.0
  0
LINE
  5
10296
330
6C
100
AcDbEntity
  8
0
100
AcDbLine
 10
46.66584893029402
 20
57.49730674433664
 30
0.0
 11
48.66584893029402
 21
57.49739590349536
 31
0.0
  0
LEADER
  5
10299
330
6C
100
AcDbEntity
  8
TEXT
100
AcDbLeader
  3
STANDARD
 76
     3
 10
44.95741757272103
 20
51.58198340515601
 30
0.0
 10
38.57551635785128
 20
52.9613925060707
 30
0.0
 10
38.38801635785128
 20
52.9613925060707
 30
0.0
  0
LEADER
  5
1029A
330
6C
100
AcDbEntity
  8
TEXT
100
AcDbLeader
  3
STANDARD
 76
     3
 10
39.28315863883073
 20
55.72295544323743
 30
0.0
 10
38.41985105009582
 20
55.92404673505274
 30
0.0
 10
38.23235105009582
 20
55.92404673505274
 30
0.0
  0
MTEXT
  5
1029B
102
{ACAD_XDICTIONARY
360
11436
102
}
330
6C
100
AcDbEntity
  8
TEXT
100
AcDbMText
 10
36.05520064602846
 20
53.07450978527702
 30
0.0
 40
0.25
 41
2.268012584311149
 46
0.0
 71
     1
 72
     5
  1
\pxqr; BR-??\P0.125 ALUM.   BRAKE
 73
     1
 44
1.0
  0
MTEXT
  5
1029C
102
{ACAD_XDICTIONARY
360
11438
102
}
330
6C
100
AcDbEntity
  8
TEXT
100
AcDbMText
 10
36.02617664840739
 20
56.03716401425906
 30
0.0
 40
0.25
 41
2.009293399731076
 46
0.0
 71
     1
 72
     5
  1
\pxqr; BR-??\P0.125 ALUM.   BRAKE
 73
     1
 44
1.0
  0
INSERT
  5
1029D
330
6C
100
AcDbEntity
  8
0
100
AcDbBlockReference
  2
B601CG010
 10
45.67507736576207
 20
53.24730174433668
 30
0.0
 41
-1.0
  0
INSERT
  5
1029F
330
6C
100
AcDbEntity
  8
0
100
AcDbBlockReference
  2
B601CG010
 10
43.41585466747871
 20
50.98816746802731
 30
0.0
 50
89.99999999999998
  0
LWPOLYLINE
  5
102A0
330
6C
100
AcDbEntity
  8
0
100
AcDbPolyline
 90
        7
 70
     1
 43
0.0
 10
45.05437486146905
 20
51.60922815173352
 10
45.77787486146905
 20
51.60922815173352
 10
45.77787486146905
 20
51.73422815173351
 10
45.05437486146905
 20
51.73422815173352
 42
0.4142135623730978
 10
44.92937486146906
 20
51.60922815173352
 10
44.92937486146906
 20
50.88572815173352
 10
45.05437486146906
 20
50.88572815173352
  0
MTEXT
  5
10376
330
6C
100
AcDbEntity
  8
TEXT
100
AcDbMText
 10
44.22328726612043
 20
45.48970015899349
 30
0.0
 40
0.375
 41
6.5
 46
0.0
 71
     2
 72
     5
  1
\P90%%D INSIDE CORNER\PWITH BRAKE METAL
 73
     1
 44
1.0
  0
MTEXT
  5
10421
330
6C
100
AcDbEntity
  8
TEXT
100
AcDbMText
 10
13.26975975501989
 20
61.25541472258447
 30
0.0
 40
0.25
 41
9.478949894201232
 46
0.0
 71
     1
 72
     5
  1
601CG010  FEMALE EXPANSION MULLION HALF
 73
     1
 44
1.0
  0
MTEXT
  5
1056E
330
6C
100
AcDbEntity
  8
TEXT
100
AcDbMText
 10
13.26975975501989
 20
34.94275745492578
 30
0.0
 40
0.25
 41
9.478949894201232
 46
0.0
 71
     1
 72
     5
  1
601CG010  FEMALE EXPANSION MULLION HALF
 73
     1
 44
1.0
  0
INSERT
  5
10570
330
6C
100
AcDbEntity
  8
0
100
AcDbBlockReference
  2
B601CG010
 10
20.32084086264446
 20
28.4743900349065
 30
0.0
 41
-1.0
 50
22.51402889052334
  0
INSERT
  5
1057B
330
6C
100
AcDbEntity
  8
0
100
AcDbBlockReference
  2
B601CG010
 10
15.77953345488679
 20
28.47744662111622
 30
0.0
 50
337.5140288905236
  0
LINE
  5
1057C
330
6C
100
AcDbEntity
  8
0
100
AcDbLine
 10
18.81157306025211
 20
32.33208317541122
 30
0.0
 11
18.05265418811803
 21
32.018518627825
 31
0.0
  0
LINE
  5
1057D
330
6C
100
AcDbEntity
  8
0
100
AcDbLine
 10
18.85940010707631
 20
32.21659476801966
 30
0.0
 11
18.08997418879748
 21
31.89812491469838
 31
0.0
  0
LINE
  5
1057E
330
6C
100
AcDbEntity
  8
0
100
AcDbLine
 10
17.29614003343699
 20
32.33269546672114
 30
0.0
 11
18.05265418811803
 21
32.01854656462912
 31
0.0
  0
LINE
  5
1057F
330
6C
100
AcDbEntity
  8
0
100
AcDbLine
 10
17.2482554228307
 20
32.21723091480278
 30
0.0
 11
18.01802970566943
 21
31.89814253032917
 31
0.0
  0
ARC
  5
10580
330
6C
100
AcDbEntity
  8
0
100
AcDbCircle
 10
18.05402321118084
 20
31.9849783959666
 30
0.0
 40
0.094
100
AcDbArc
 50
247.4859711094764
 51
292.4859711094768
  0
LINE
  5
10581
330
6C
100
AcDbEntity
  8
0
100
AcDbLine
 10
18.05887221368413
 20
25.89765395969046
 30
0.0
 11
18.05265164110154
 21
31.89098840290607
 31
0.0
  0
LINE
  5
10582
330
6C
100
AcDbEntity
  8
0
100
AcDbLine
 10
15.11593655871151
 20
27.11772937675326
 30
0.0
 11
18.05887221368413
 21
25.89765395969046
 31
0.0
  0
LINE
  5
10583
330
6C
100
AcDbEntity
  8
0
100
AcDbLine
 10
15.06806524563873
 20
27.0022593065248
 30
0.0
 11
18.02287976826907
 21
25.77725905700966
 31
0.0
  0
ARC
  5
10584
330
6C
100
AcDbEntity
  8
0
100
AcDbCircle
 10
18.05887327378048
 20
25.86409492264708
 30
0.0
 40
0.094
100
AcDbArc
 50
247.4859711094764
 51
292.4859711094768
  0
LINE
  5
10585
330
6C
100
AcDbEntity
  8
0
100
AcDbLine
 10
20.99860388647541
 20
27.11525394323879
 30
0.0
 11
18.05887221368413
 21
25.89764875504375
 31
0.0
  0
LINE
  5
10586
330
6C
100
AcDbEntity
  8
0
100
AcDbLine
 10
21.04645900190561
 20
26.99977715897064
 30
0.0
 11
18.09486465909919
 21
25.77725905700966
 31
0.0
  0
LWPOLYLINE
  5
10587
330
6C
100
AcDbEntity
  8
0
100
AcDbPolyline
 90
        6
 70
     0
 43
0.0
 10
21.31020989977099
 20
33.89940845918852
 10
22.56570860350995
 20
30.86836646108009
 10
22.76960785770846
 20
30.89868303966824
 10
22.43833521186246
 20
30.65324784473038
 10
22.64224528998297
 20
30.68359055457783
 10
23.92913746965412
 20
27.57675800110389
  0
LINE
  5
10588
330
6C
100
AcDbEntity
  8
0
100
AcDbLine
 10
18.05193047769814
 20
32.13603911249805
 30
0.0
 11
21.45716428805946
 21
33.54462918193226
 31
0.0
  0
LINE
  5
10589
330
6C
100
AcDbEntity
  8
0
100
AcDbLine
 10
18.05195880138478
 20
32.33517164603199
 30
0.0
 11
21.38675052848231
 21
33.7146230352811
 31
0.0
  0
LINE
  5
1058A
330
6C
100
AcDbEntity
  8
0
100
AcDbLine
 10
18.05830780221462
 20
25.64316213275246
 30
0.0
 11
23.75300374574598
 21
28.00198242615419
 31
0.0
  0
LINE
  5
1058B
330
6C
100
AcDbEntity
  8
0
100
AcDbLine
 10
18.05830780221462
 20
25.33900992447029
 30
0.0
 11
23.86053779024057
 21
27.74237227751852
 31
0.0
  0
LWPOLYLINE
  5
1058C
330
6C
100
AcDbEntity
  8
0
100
AcDbPolyline
 90
        6
 70
     0
 43
0.0
 10
14.78184591893011
 20
33.88434261113398
 10
13.53397801037586
 20
30.87172298225213
 10
13.33007875617735
 20
30.90203956084029
 10
13.66135140202336
 20
30.65660436590242
 10
13.45744132390284
 20
30.68694707574987
 10
12.17885441901913
 20
27.60016522930694
  0
LINE
  5
1058D
330
6C
100
AcDbEntity
  8
0
100
AcDbLine
 10
18.05265418811803
 20
32.13573950534291
 30
0.0
 11
14.64234772006082
 21
33.5475641674971
 31
0.0
  0
LINE
  5
1058E
330
6C
100
AcDbEntity
  8
0
100
AcDbLine
 10
18.05195880138478
 20
32.33517164603199
 30
0.0
 11
14.71276147292563
 21
33.71755800464091
 31
0.0
  0
LINE
  5
1058F
330
6C
100
AcDbEntity
  8
0
100
AcDbLine
 10
18.05830780221462
 20
25.64072254450795
 30
0.0
 11
12.34621547816825
 21
28.00421056811788
 31
0.0
  0
LINE
  5
10590
330
6C
100
AcDbEntity
  8
0
100
AcDbLine
 10
18.05830780221462
 20
25.33661809556237
 30
0.0
 11
12.23868142593731
 21
27.744600400805
 31
0.0
  0
LINE
  5
10591
330
6C
100
AcDbEntity
  8
0
100
AcDbLine
 10
15.06806039964617
 20
27.00224761753894
 30
0.0
 11
15.11593655871151
 21
27.11772937675326
 31
0.0
  0
LINE
  5
10592
330
6C
100
AcDbEntity
  8
0
100
AcDbLine
 10
21.04645900190561
 20
26.99977715897064
 30
0.0
 11
20.99860388647541
 21
27.11525394323879
 31
0.0
  0
LINE
  5
10593
330
6C
100
AcDbEntity
  8
0
100
AcDbLine
 10
17.2482554228307
 20
32.21723091480278
 30
0.0
 11
17.29614003343699
 21
32.33269546672114
 31
0.0
  0
LINE
  5
10594
330
6C
100
AcDbEntity
  8
0
100
AcDbLine
 10
18.85940010707631
 20
32.21659476801966
 30
0.0
 11
18.81157306025211
 21
32.33208317541122
 31
0.0
  0
LINE
  5
10595
330
6C
100
AcDbEntity
  8
0
100
AcDbLine
 10
18.0526529685482
 20
32.0185470710658
 30
0.0
 11
18.05265626652255
 21
32.33546015557982
 31
0.0
  0
LEADER
  5
10596
330
6C
100
AcDbEntity
  8
TEXT
100
AcDbLeader
  3
STANDARD
 76
     3
 10
17.28500568337306
 20
32.23122408361797
 30
0.0
 10
12.91421364170125
 20
32.62686720270677
 30
0.0
 10
12.72671364170125
 20
32.62686720270677
 30
0.0
211
1.0
221
-0.0000000000000002
231
0.0
  0
MTEXT
  5
10597
102
{ACAD_XDICTIONARY
360
1143A
102
}
330
6C
100
AcDbEntity
  8
TEXT
100
AcDbMText
 10
10.52783165036513
 20
32.48557890419146
 30
0.0
 40
0.25
 41
2.130981104488723
 46
0.0
 71
     7
 72
     5
  1
\pxqr; BR-??\P0.125 ALUM.   BRAKE
 73
     1
 44
1.0
  0
DIMENSION
  5
1059B
330
6C
100
AcDbEntity
  8
DIME
100
AcDbDimension
280
     0
  2
*D22
 10
24.90104705428567
 20
25.2303607004859
 30
0.0
 11
21.98861127469783
 21
24.27223540168347
 31
0.0
 70
    32
  1
OD
 71
     5
 42
6.114796968992621
 73
     0
 74
     0
 75
     0
  3
EXT_ON-OFF
100
AcDbAlignedDimension
 13
18.05887327378048
 23
25.77009492264708
 33
0.0
 14
23.92913746965412
 24
27.57675800110389
 34
0.0
 50
22.4999999999992
100
AcDbRotatedDimension
  0
DIMENSION
  5
1059C
330
6C
100
AcDbEntity
  8
DIME
100
AcDbDimension
280
     0
  2
*D23
 10
24.66186988141378
 20
25.8077854750433
 30
0.0
 11
21.75109822657445
 21
24.8456426237035
 31
0.0
 70
    32
  1
FW
 71
     5
 42
6.114796968992621
 73
     0
 74
     0
 75
     0
  3
EXT_ON-OFF
100
AcDbAlignedDimension
 13
18.05887327378048
 23
25.77009492264708
 33
0.0
 14
23.92913746965412
 24
27.57675800110389
 34
0.0
 50
22.4999999999992
100
AcDbRotatedDimension
  0
DIMENSION
  5
1059D
330
6C
100
AcDbEntity
  8
DIME
100
AcDbDimension
280
     0
  2
*D24
 10
22.57460314352874
 20
25.61970648729208
 30
0.0
 11
20.5862447763445
 21
25.044254294104
 31
0.0
 70
    32
 71
     5
 42
4.11443923838064
 73
     0
 74
     0
 75
     0
  3
EXT_ON-ON
100
AcDbAlignedDimension
 13
18.05887327378048
 23
25.77009492264708
 33
0.0
 14
21.90490390471431
 24
27.23650347234888
 34
0.0
 50
22.4999999999992
100
AcDbRotatedDimension
  0
DIMENSION
  5
1059E
330
6C
100
AcDbEntity
  8
DIME
100
AcDbDimension
280
     0
  2
*D25
 10
11.67681670088075
 20
26.38813896135437
 30
0.0
 11
12.68803011965655
 21
26.21752574948724
 31
0.0
 70
    32
  1
DLO
 71
     5
 42
1.999060460263761
 73
     0
 74
     0
 75
     0
  3
EXT_ON-OFF
100
AcDbAlignedDimension
 13
14.19339670716692
 23
27.23990381946877
 33
0.0
 14
12.17885441901913
 24
27.60016522930694
 34
0.0
 50
337.500000000001
100
AcDbRotatedDimension
  0
DIMENSION
  5
1059F
330
6C
100
AcDbEntity
  8
DIME
100
AcDbDimension
280
     0
  2
*D26
 10
11.19846235513696
 20
25.23328941223955
 30
0.0
 11
14.11919904825644
 21
24.27172576247223
 31
0.0
 70
    32
  1
OD
 71
     5
 42
6.132766657116501
 73
     0
 74
     0
 75
     0
  3
EXT_ON-OFF
100
AcDbAlignedDimension
 13
18.05887327378048
 23
25.77009492264708
 33
0.0
 14
12.17885441901913
 24
27.60016522930694
 34
0.0
 50
337.500000000001
100
AcDbRotatedDimension
  0
DIMENSION
  5
105A0
330
6C
100
AcDbEntity
  8
DIME
100
AcDbDimension
280
     0
  2
*D27
 10
11.43763952800885
 20
25.81071418679695
 30
0.0
 11
14.35671209637982
 21
24.84513298449229
 31
0.0
 70
    32
  1
FW
 71
     5
 42
6.132766657116501
 73
     0
 74
     0
 75
     0
  3
EXT_ON-OFF
100
AcDbAlignedDimension
 13
18.05887327378048
 23
25.77009492264708
 33
0.0
 14
12.17885441901913
 24
27.60016522930694
 34
0.0
 50
337.500000000001
100
AcDbRotatedDimension
  0
DIMENSION
  5
105A1
330
6C
100
AcDbEntity
  8
DIME
100
AcDbDimension
280
     0
  2
*D28
 10
13.52367649468031
 20
25.623144586961
 30
0.0
 11
15.52095066100297
 21
25.0439993488504
 31
0.0
 70
    32
 71
     5
 42
4.133740021274233
 73
     0
 74
     0
 75
     0
  3
EXT_ON-ON
100
AcDbAlignedDimension
 13
18.05887327378048
 23
25.77009492264708
 33
0.0
 14
14.19337573349474
 24
27.23994157201781
 34
0.0
 50
337.500000000001
100
AcDbRotatedDimension
  0
DIMENSION
  5
105A2
330
6C
100
AcDbEntity
  8
DIME
100
AcDbDimension
280
     0
  2
*D29
 10
24.42269270854188
 20
26.38521024960071
 30
0.0
 11
23.41086440415929
 21
26.21434234377594
 31
0.0
 70
    32
  1
DLO
 71
     5
 42
2.000391555033473
 73
     0
 74
     0
 75
     0
  3
EXT_ON-OFF
100
AcDbAlignedDimension
 13
21.90488293104213
 23
27.23646571979985
 33
0.0
 14
23.92913746965412
 24
27.57675800110389
 34
0.0
 50
22.4999999999992
100
AcDbRotatedDimension
  0
LEADER
  5
105A3
330
6C
100
AcDbEntity
  8
TEXT
100
AcDbLeader
  3
STANDARD
 76
     3
 10
19.42911975839135
 20
26.42732237219466
 30
0.0
 10
12.20099435350028
 20
30.6007591830773
 30
0.0
 10
12.01349435350028
 20
30.6007591830773
 30
0.0
211
1.0
221
-0.0000000000000002
231
0.0
  0
MTEXT
  5
105A4
102
{ACAD_XDICTIONARY
360
1143C
102
}
330
6C
100
AcDbEntity
  8
TEXT
100
AcDbMText
 10
9.814612362164162
 20
30.45947088456198
 30
0.0
 40
0.25
 41
2.130981104488723
 46
0.0
 71
     7
 72
     5
  1
\pxqr; BR-??\P0.125 ALUM.   BRAKE
 73
     1
 44
1.0
  0
LINE
  5
105A5
330
6C
100
AcDbEntity
  8
0
100
AcDbLine
 10
18.05830780221462
 20
25.77009662350338
 30
0.0
 11
18.05830780221462
 21
25.33661809556237
 31
0.0
  0
INSERT
  5
107BC
330
6C
100
AcDbEntity
  8
0
100
AcDbBlockReference
  2
gt100
 10
14.13291153612624
 20
55.48437880671404
 30
0.0
 50
90.0
  0
INSERT
  5
107D7
330
6C
100
AcDbEntity
  8
0
100
AcDbBlockReference
  2
gt100
 10
19.9153857989415
 20
51.28394296587276
 30
0.0
  0
INSERT
  5
107D8
330
6C
100
AcDbEntity
  8
0
100
AcDbBlockReference
  2
gt100
 10
46.40734893029402
 20
54.53828174433663
 30
0.0
  0
INSERT
  5
107D9
330
6C
100
AcDbEntity
  8
0
100
AcDbBlockReference
  2
gt100
 10
43.70682466747876
 20
50.25589590349536
 30
0.0
 50
270.0
  0
INSERT
  5
108FF
330
6C
100
AcDbEntity
  8
0
100
AcDbBlockReference
  2
gt100
 10
20.502974260971
 20
29.94737286910245
 30
0.0
 50
22.47265049006476
  0
INSERT
  5
10910
330
6C
100
AcDbEntity
  8
0
100
AcDbBlockReference
  2
gt100
 10
14.9916505764779
 20
28.48866067623508
 30
0.0
 50
157.5110505389455
  0
MTEXT
  5
10962
330
6C
100
AcDbEntity
  8
TEXT
100
AcDbMText
 10
18.00578642710557
 20
22.49081122485293
 30
0.0
 40
0.375
 41
6.5
 46
0.0
 71
     2
 72
     5
  1
\P135%%D OUTSIDE CORNER\PWITH BRAKE METAL
 73
     1
 44
1.0
  0
MTEXT
  5
10A84
330
6C
100
AcDbEntity
  8
TEXT
100
AcDbMText
 10
39.90319659324246
 20
33.91460914140168
 30
0.0
 40
0.25
 41
9.478949894201232
 46
0.0
 71
     1
 72
     5
  1
601CG010  FEMALE EXPANSION MULLION HALF
 73
     1
 44
1.0
  0
INSERT
  5
10A86
330
6C
100
AcDbEntity
  8
0
100
AcDbBlockReference
  2
B601CG010
 10
45.03684538530913
 20
26.88980776763617
 30
0.0
 41
-1.0
 50
337.5140288905234
  0
INSERT
  5
10A91
330
6C
100
AcDbEntity
  8
0
100
AcDbBlockReference
  2
B601CG010
 10
42.4088791507192
 20
26.88761436953924
 30
0.0
 50
22.51402889052346
  0
LINE
  5
10A92
330
6C
100
AcDbEntity
  8
0
100
AcDbLine
 10
44.48442694161225
 20
25.34215332604204
 30
0.0
 11
43.72550806947816
 21
25.65571787362825
 31
0.0
  0
LINE
  5
10A93
330
6C
100
AcDbEntity
  8
0
100
AcDbLine
 10
44.53225398843644
 20
25.4576417334336
 30
0.0
 11
43.76282807015761
 21
25.77611158675487
 31
0.0
  0
LINE
  5
10A94
330
6C
100
AcDbEntity
  8
0
100
AcDbLine
 10
42.96899391479713
 20
25.34154103473211
 30
0.0
 11
43.72550806947816
 21
25.65568993682414
 31
0.0
  0
LINE
  5
10A95
330
6C
100
AcDbEntity
  8
0
100
AcDbLine
 10
42.92110930419084
 20
25.45700558665047
 30
0.0
 11
43.69088358702957
 21
25.77609397112408
 31
0.0
  0
ARC
  5
10A96
330
6C
100
AcDbEntity
  8
0
100
AcDbCircle
 10
43.72687709254097
 20
25.68925810548666
 30
0.0
 40
0.094
100
AcDbArc
 50
67.51402889052319
 51
112.5140288905234
  0
LINE
  5
10A97
330
6C
100
AcDbEntity
  8
0
100
AcDbLine
 10
43.73172609504428
 20
31.77658254176279
 30
0.0
 11
43.72550552246168
 21
25.78324809854718
 31
0.0
  0
LINE
  5
10A98
330
6C
100
AcDbEntity
  8
0
100
AcDbLine
 10
40.78879044007165
 20
30.5565071247
 30
0.0
 11
43.73172609504428
 21
31.77658254176279
 31
0.0
  0
LINE
  5
10A99
330
6C
100
AcDbEntity
  8
0
100
AcDbLine
 10
40.74091912699887
 20
30.67197719492846
 30
0.0
 11
43.69573364962922
 21
31.8969774444436
 31
0.0
  0
ARC
  5
10A9A
330
6C
100
AcDbEntity
  8
0
100
AcDbCircle
 10
43.73172715514061
 20
31.81014157880617
 30
0.0
 40
0.094
100
AcDbArc
 50
67.51402889052319
 51
112.5140288905234
  0
LINE
  5
10A9B
330
6C
100
AcDbEntity
  8
0
100
AcDbLine
 10
46.67145776783555
 20
30.55898255821446
 30
0.0
 11
43.73172609504428
 21
31.77658774640951
 31
0.0
  0
LINE
  5
10A9C
330
6C
100
AcDbEntity
  8
0
100
AcDbLine
 10
46.71931288326574
 20
30.67445934248262
 30
0.0
 11
43.76771854045933
 21
31.8969774444436
 31
0.0
  0
LWPOLYLINE
  5
10A9D
330
6C
100
AcDbEntity
  8
0
100
AcDbPolyline
 90
        6
 70
     0
 43
0.0
 10
46.95447171553928
 20
23.70493061580828
 10
48.23887672980315
 20
26.80575862082411
 10
48.44277598400167
 20
26.77544204223595
 10
48.11150333815566
 20
27.02087723717383
 10
48.31541341627618
 20
26.99053452732637
 10
49.58298587387177
 20
30.05072514574424
  0
LINE
  5
10A9E
330
6C
100
AcDbEntity
  8
0
100
AcDbLine
 10
43.73129429862157
 20
32.03101943774984
 30
0.0
 11
49.42616524469356
 21
29.67212665592232
 31
0.0
  0
LINE
  5
10A9F
330
6C
100
AcDbEntity
  8
0
100
AcDbLine
 10
43.73129429862157
 20
32.33517164603199
 30
0.0
 11
49.53369928918815
 21
29.93173680455799
 31
0.0
  0
LWPOLYLINE
  5
10AA0
330
6C
100
AcDbEntity
  8
0
100
AcDbPolyline
 90
        6
 70
     0
 43
0.0
 10
40.47850056680416
 20
23.73085458055248
 10
39.2062834751299
 20
26.80225833755537
 10
39.00238422093139
 20
26.77194175896721
 10
39.3336568667774
 20
27.01737695390508
 10
39.12974678865688
 20
26.98703424405763
 10
37.84856458081796
 20
30.08008170609346
  0
LINE
  5
10AA1
330
6C
100
AcDbEntity
  8
0
100
AcDbLine
 10
43.73129429862157
 20
32.03356882897067
 30
0.0
 11
38.01851094861438
 21
29.66979488008331
 31
0.0
  0
LINE
  5
10AA2
330
6C
100
AcDbEntity
  8
0
100
AcDbLine
 10
43.73129429862157
 20
32.33767327791624
 30
0.0
 11
37.91097689638344
 21
29.92940504739619
 31
0.0
  0
DIMENSION
  5
10AA3
330
6C
100
AcDbEntity
  8
DIME
100
AcDbDimension
280
     0
  2
*D32
 10
41.18803518002088
 20
22.01780795071331
 30
0.0
 11
42.8262963984734
 21
22.94461028638131
 31
0.0
 70
    32
  1
O.D.
 71
     5
 42
3.736448379869251
 73
     0
 74
     0
 75
     0
  3
EXT_ON-OFF
100
AcDbAlignedDimension
 13
43.72550806947816
 23
25.65571787362825
 33
0.0
 14
40.47850056680416
 24
23.73085458055248
 34
0.0
 50
22.49907119961935
100
AcDbRotatedDimension
  0
DIMENSION
  5
10AA4
330
6C
100
AcDbEntity
  8
DIME
100
AcDbDimension
280
     0
  2
*D33
 10
40.94886674127094
 20
22.59523811455979
 30
0.0
 11
42.58879201934473
 21
23.51802287071447
 31
0.0
 70
    32
  1
F.W.
 71
     5
 42
3.736448379869251
 73
     0
 74
     0
 75
     0
  3
EXT_ON-OFF
100
AcDbAlignedDimension
 13
43.72550806947816
 23
25.65571787362825
 33
0.0
 14
40.47850056680416
 24
23.73085458055248
 34
0.0
 50
22.49907119961935
100
AcDbRotatedDimension
  0
DIMENSION
  5
10AA5
330
6C
100
AcDbEntity
  8
DIME
100
AcDbDimension
280
     0
  2
*D34
 10
44.16175603716564
 20
24.60252211347946
 30
0.0
 11
43.27237335665143
 21
24.48237284571419
 31
0.0
 70
    32
 71
     5
 42
1.735323178563341
 73
     0
 74
     0
 75
     0
  3
EXT_ON-ON
100
AcDbAlignedDimension
 13
42.16370838712765
 23
24.89161785406402
 33
0.0
 14
43.72550806947816
 24
25.65571787362825
 34
0.0
 50
22.5000000000001
100
AcDbRotatedDimension
  0
DIMENSION
  5
10AA6
330
6C
100
AcDbEntity
  8
DIME
100
AcDbDimension
280
     0
  2
*D35
 10
40.70969563937125
 20
23.17267470811332
 30
0.0
 11
41.54633750268323
 21
23.76745065921637
 31
0.0
 70
    32
  1
DLO
 71
     5
 42
2.001126956520558
 73
     0
 74
     0
 75
     0
  3
EXT_ON-OFF
100
AcDbAlignedDimension
 13
42.16370838712765
 23
24.89161785406402
 33
0.0
 14
40.47850056680416
 24
23.73085458055248
 34
0.0
 50
22.49907119961935
100
AcDbRotatedDimension
  0
LINE
  5
10AA7
330
6C
100
AcDbEntity
  8
0
100
AcDbLine
 10
40.74091428100631
 20
30.67198888391431
 30
0.0
 11
40.78879044007165
 21
30.5565071247
 31
0.0
  0
LINE
  5
10AA8
330
6C
100
AcDbEntity
  8
0
100
AcDbLine
 10
46.71931288326574
 20
30.67445934248262
 30
0.0
 11
46.67145776783555
 21
30.55898255821446
 31
0.0
  0
LINE
  5
10AA9
330
6C
100
AcDbEntity
  8
0
100
AcDbLine
 10
42.92110930419084
 20
25.45700558665047
 30
0.0
 11
42.96899391479713
 21
25.34154103473211
 31
0.0
  0
LINE
  5
10AAA
330
6C
100
AcDbEntity
  8
0
100
AcDbLine
 10
44.53225398843644
 20
25.4576417334336
 30
0.0
 11
44.48442694161225
 21
25.34215332604204
 31
0.0
  0
LEADER
  5
10AAB
330
6C
100
AcDbEntity
  8
TEXT
100
AcDbLeader
  3
STANDARD
 76
     3
 10
42.72692886446905
 20
31.456652242421
 30
0.0
 10
41.8967126008028
 20
32.70671115774034
 30
0.0
 10
41.70921260080279
 20
32.70671115774034
 30
0.0
  0
MTEXT
  5
10AAC
102
{ACAD_XDICTIONARY
360
1143E
102
}
330
6C
100
AcDbEntity
  8
TEXT
100
AcDbMText
 10
39.480463959823
 20
32.81982843694667
 30
0.0
 40
0.25
 41
2.049798720462161
 46
0.0
 71
     1
 72
     5
  1
\pxqr; BR-??\P0.125 ALUM.   BRAKE
 73
     1
 44
1.0
  0
LEADER
  5
10AAD
330
6C
100
AcDbEntity
  8
TEXT
100
AcDbLeader
  3
STANDARD
 76
     3
 10
42.9578595647332
 20
25.44301241783529
 30
0.0
 10
38.58706752306139
 20
25.04736929874648
 30
0.0
 10
38.39956752306139
 20
25.04736929874648
 30
0.0
  0
MTEXT
  5
10AAE
102
{ACAD_XDICTIONARY
360
11440
102
}
330
6C
100
AcDbEntity
  8
TEXT
100
AcDbMText
 10
36.20068553172527
 20
25.1886575972618
 30
0.0
 40
0.25
 41
2.130981104488723
 46
0.0
 71
     1
 72
     5
  1
\pxqr; BR-??\P0.125 ALUM.   BRAKE
 73
     1
 44
1.0
  0
LINE
  5
10AB2
330
6C
100
AcDbEntity
  8
0
100
AcDbLine
 10
43.72586332016208
 20
25.53868361385492
 30
0.0
 11
40.31490174721008
 21
24.12581706960474
 31
0.0
  0
LINE
  5
10AB3
330
6C
100
AcDbEntity
  8
0
100
AcDbLine
 10
43.72586332016208
 20
25.33952344900111
 30
0.0
 11
40.38531549876526
 21
23.95582323562267
 31
0.0
  0
LINE
  5
10AB4
330
6C
100
AcDbEntity
  8
0
100
AcDbLine
 10
43.72586332016208
 20
25.53891601560406
 30
0.0
 11
47.13006471933056
 21
24.128849627019
 31
0.0
  0
LINE
  5
10AB5
330
6C
100
AcDbEntity
  8
0
100
AcDbLine
 10
43.72586332016208
 20
25.33975585075026
 30
0.0
 11
47.05965096777538
 21
23.95885579303692
 31
0.0
  0
LINE
  5
10AB6
330
6C
100
AcDbEntity
  8
0
100
AcDbLine
 10
43.73129429862157
 20
31.90414058217979
 30
0.0
 11
43.73129429862157
 21
32.33767327791624
 31
0.0
  0
LINE
  5
10AB7
330
6C
100
AcDbEntity
  8
0
100
AcDbLine
 10
43.72586332016208
 20
25.65557109374957
 30
0.0
 11
43.72586332016208
 21
25.33952344900111
 31
0.0
  0
INSERT
  5
10B56
330
6C
100
AcDbEntity
  8
0
100
AcDbBlockReference
  2
gt100
 10
46.20720191571761
 20
27.80260664267352
 30
0.0
 50
337.5
  0
INSERT
  5
10B67
330
6C
100
AcDbEntity
  8
0
100
AcDbBlockReference
  2
gt100
 10
41.84278958442695
 20
26.3379943758425
 30
0.0
 50
202.4782663463362
  0
POINT
  5
10C9E
330
6C
100
AcDbEntity
  8
INSERTION_PT
100
AcDbPoint
 10
67.8365319632147
 20
52.30930674433662
 30
0.0
 50
180.0
  0
LWPOLYLINE
  5
10C9F
330
6C
100
AcDbEntity
  8
0
100
AcDbPolyline
 90
        4
 70
     0
 43
0.0
 10
69.9141680056033
 20
57.26092144296045
 10
68.09967026995156
 20
57.26092144296045
 10
68.0996510290244
 20
57.38592144296045
 10
69.9141680056033
 20
57.38592144296045
  0
LWPOLYLINE
  5
10CA0
330
6C
100
AcDbEntity
  8
0
100
AcDbPolyline
 90
        6
 70
     0
 43
0.0
 10
65.21157727997881
 20
51.24612978829802
 10
65.21157727997881
 20
54.39605590028259
 10
65.01159727997881
 20
54.44607590028259
 10
65.41157727997881
 20
54.54605590028259
 10
65.21157727997881
 20
54.59605590028259
 10
65.21157727997881
 20
57.74717436787739
  0
LINE
  5
10CA1
330
6C
100
AcDbEntity
  8
0
100
AcDbLine
 10
67.33653196321482
 20
51.49730674433662
 30
0.0
 11
65.21157727997881
 21
51.49730674433662
 31
0.0
  0
LINE
  5
10CA4
330
6C
100
AcDbEntity
  8
0
100
AcDbLine
 10
67.35153196321483
 20
57.49739590349535
 30
0.0
 11
65.21157727997881
 21
57.49739590349535
 31
0.0
  0
INSERT
  5
10CA5
330
6C
100
AcDbEntity
  8
0
100
AcDbBlockReference
  2
gt100
 10
67.47007727997881
 20
52.95633174433662
 30
0.0
 50
180.0
  0
LEADER
  5
10CA8
330
6C
100
AcDbEntity
  8
TEXT
100
AcDbLeader
  3
STANDARD
 76
     3
 10
69.30405781057338
 20
57.38592144296045
 30
0.0
 10
68.52261978852777
 20
59.03881977565347
 30
0.0
 10
68.33511978852778
 20
59.03881977565347
 30
0.0
  0
MTEXT
  5
10CA9
102
{ACAD_XDICTIONARY
360
11442
102
}
330
6C
100
AcDbEntity
  8
TEXT
100
AcDbMText
 10
69.31914537367041
 20
50.43682942193142
 30
0.0
 40
0.25
 41
2.268012584311149
 46
0.0
 71
     1
 72
     5
  1
\pxqr; BR-??\P0.125 ALUM.   BRAKE
 73
     1
 44
1.0
  0
MTEXT
  5
10CAA
102
{ACAD_XDICTIONARY
360
11444
102
}
330
6C
100
AcDbEntity
  8
TEXT
100
AcDbMText
 10
66.12894538683935
 20
59.15193705485979
 30
0.0
 40
0.25
 41
2.009293399731076
 46
0.0
 71
     1
 72
     5
  1
\pxqr; BR-??\P0.125 ALUM.   BRAKE
 73
     1
 44
1.0
  0
INSERT
  5
10CAB
330
6C
100
AcDbEntity
  8
0
100
AcDbBlockReference
  2
B601CG010
 10
68.20234884451076
 20
53.24730174433668
 30
0.0
  0
LWPOLYLINE
  5
10CAC
330
6C
100
AcDbEntity
  8
0
100
AcDbPolyline
 90
        4
 70
     0
 43
0.0
 10
69.9141680056033
 20
51.60892144296045
 10
68.09967026995156
 20
51.60892144296045
 10
68.0996510290244
 20
51.73392144296045
 10
69.9141680056033
 20
51.73392144296045
  0
DIMENSION
  5
10CAD
330
6C
100
AcDbEntity
  8
DIME
100
AcDbDimension
280
     0
  2
*D36
 10
65.21157727997881
 20
49.86846219475636
 30
0.0
 11
66.21157727997881
 21
50.09781076228705
 31
0.0
 70
    32
  1
DLO
 71
     5
 42
2.0
 73
     0
 74
     0
 75
     0
  3
EXT_ON-OFF
100
AcDbAlignedDimension
 13
67.21157727997881
 23
51.49730674433662
 33
0.0
 14
65.21157727997881
 24
51.24612978829802
 34
0.0
 50
180.0
100
AcDbRotatedDimension
  0
DIMENSION
  5
10CAE
330
6C
100
AcDbEntity
  8
DIME
100
AcDbDimension
280
     0
  2
*D37
 10
62.83235235005417
 20
51.49730674433662
 30
0.0
 11
62.60470910312373
 21
54.497351323916
 31
0.0
 70
    32
 71
     5
 42
6.000089159158726
 73
     0
 74
     0
 75
     0
  3
EXT_ON-ON
100
AcDbAlignedDimension
 13
65.21157727997881
 23
57.49739590349535
 33
0.0
 14
65.21157727997881
 24
51.49730674433662
 34
0.0
 50
90.0
100
AcDbRotatedDimension
1001
ACAD
1000
DSTYLE
1002
{
1070
    90
1070
     1
1002
}
  0
MTEXT
  5
10D21
330
6C
100
AcDbEntity
  8
TEXT
100
AcDbMText
 10
66.81865015755852
 20
60.32714692183143
 30
0.0
 40
0.25
 41
9.478949894201232
 46
0.0
 71
     1
 72
     5
  1
601CG010  FEMALE EXPANSION MULLION HALF
 73
     1
 44
1.0
  0
MTEXT
  5
10D22
330
6C
100
AcDbEntity
  8
TEXT
100
AcDbMText
 10
70.94856567658155
 20
48.98559816523911
 30
0.0
 40
0.375
 41
7.720494977050535
 46
2.248433282106407
 71
     2
 72
     5
  1
\PVARIABLE DEGREE CORNER\PWITH BRAKE METAL
 73
     1
 44
1.0
1001
ACAD
1000
ACAD_MTEXT_DEFINED_HEIGHT_BEGIN
1070
    46
1040
2.248433282106407
1000
ACAD_MTEXT_DEFINED_HEIGHT_END
  0
MTEXT
  5
10D23
330
6C
100
AcDbEntity
  8
TEXT
100
AcDbMText
 10
44.22314985352777
 20
21.69948190767271
 30
0.0
 40
0.375
 41
6.5
 46
0.0
 71
     2
 72
     5
  1
\P135%%D INSIDE CORNER\PWITH BRAKE METAL
 73
     1
 44
1.0
  0
POINT
  5
10D24
330
6C
100
AcDbEntity
  8
INSERTION_PT
100
AcDbPoint
 10
73.72348057972684
 20
52.30930674433662
 30
0.0
 50
0.000000000000007
  0
LWPOLYLINE
  5
10D25
330
6C
100
AcDbEntity
  8
0
100
AcDbPolyline
 90
        4
 70
     0
 43
0.0
 10
71.64584453733823
 20
57.26092144296045
 10
73.46034227298997
 20
57.26092144296045
 10
73.46036151391714
 20
57.38592144296045
 10
71.64584453733823
 20
57.38592144296045
  0
LWPOLYLINE
  5
10D26
330
6C
100
AcDbEntity
  8
0
100
AcDbPolyline
 90
        6
 70
     0
 43
0.0
 10
76.34843526296272
 20
51.24612978829802
 10
76.34843526296272
 20
54.39605590028259
 10
76.54841526296272
 20
54.44607590028259
 10
76.14843526296272
 20
54.54605590028259
 10
76.34843526296272
 20
54.59605590028259
 10
76.34843526296272
 20
57.74717436787739
  0
LINE
  5
10D27
330
6C
100
AcDbEntity
  8
0
100
AcDbLine
 10
74.22348057972671
 20
51.49730674433662
 30
0.0
 11
76.34843526296272
 21
51.49730674433662
 31
0.0
  0
LINE
  5
10D28
330
6C
100
AcDbEntity
  8
0
100
AcDbLine
 10
74.20848057972671
 20
57.49739590349535
 30
0.0
 11
76.34843526296272
 21
57.49739590349535
 31
0.0
  0
INSERT
  5
10D29
330
6C
100
AcDbEntity
  8
0
100
AcDbBlockReference
  2
gt100
 10
74.08993526296272
 20
52.95633174433662
 30
0.0
 41
-1.0
 50
180.0
  0
INSERT
  5
10D2A
330
6C
100
AcDbEntity
  8
0
100
AcDbBlockReference
  2
B601CG010
 10
73.35766369843077
 20
53.24730174433668
 30
0.0
 41
-1.0
  0
LWPOLYLINE
  5
10D2B
102
{ACAD_REACTORS
330
10D4D
102
}
330
6C
100
AcDbEntity
  8
0
100
AcDbPolyline
 90
        4
 70
     0
 43
0.0
 10
71.64584453733823
 20
51.60892144296045
 10
73.46034227298997
 20
51.60892144296045
 10
73.46036151391714
 20
51.73392144296045
 10
71.64584453733823
 20
51.73392144296045
  0
DIMENSION
  5
10D2C
330
6C
100
AcDbEntity
  8
DIME
100
AcDbDimension
280
     0
  2
*D38
 10
76.34843526296272
 20
49.86846219475636
 30
0.0
 11
75.34843526296272
 21
50.09781076228705
 31
0.0
 70
    32
  1
DLO
 71
     5
 42
2.0
 73
     0
 74
     0
 75
     0
  3
EXT_ON-OFF
100
AcDbAlignedDimension
 13
74.34843526296273
 23
51.49730674433662
 33
0.0
 14
76.34843526296272
 24
51.24612978829802
 34
0.0
 50
0.000000000000007
100
AcDbRotatedDimension
  0
MULTILEADER
  5
10D4B
102
{ACAD_XDICTIONARY
360
10D4C
102
}
102
{ACAD_REACTORS
330
10D4D
102
}
330
6C
100
AcDbEntity
  8
TEXT
160
               452
310
C4010000170000000C00000016000000000000C00C00000033000000000000000C00000013000000993A00000C00000033000000000000000C00000010000000020000000C00000016000000000000C00C00000012000000FF7F00000C00000013000000010000000C00000014000000010000005400000007000000030000
310
0015BA71AF531252408659E83E3ABA49400000000000000000E0B222289718524094AC4923F1CD4940000000000000000098F73EC6DC155240801D0CF63AB7494000000000000000000C00000014000000010000000C00000013000000891300003C0000000600000002000000D658D83A18145240833B7A9ABAB849400000
310
000000000000511DFDBAB9F55140442945666F29494000000000000000000C00000013000000112700000C00000016000000000000C00C00000012000000FF7F00000C00000017000000000000000C000000130000009A3A00003C00000006000000020000005BF4A02BF7EF5140442945666F294940000000000000000051
310
1DFDBAB9F55140442945666F29494000000000000000000C00000016000000000000C00C00000012000000FF7F00000C00000017000000FFFFFFFF0C0000003300000000000000
100
AcDbMLeader
270
     2
300
CONTEXT_DATA{
 40
1.0
 10
71.65946108549322
 20
50.4137121427251
 30
0.0
 41
0.18
140
0.18
145
0.09
174
     1
175
     6
176
     2
177
     0
290
     1
304

 11
0.0
 21
0.0
 31
1.0
340
55
 12
71.74946108549322
 22
50.50371214272511
 32
0.0
 13
1.0
 23
0.0
 33
0.0
 42
0.0
 43
0.0
 44
0.0
 45
1.0
170
     1
 90
-1073741824
171
     3
172
     5
 91
-1073741824
141
0.0
 92
        0
291
     0
292
     0
173
     0
293
     0
142
0.0
143
0.0
294
     0
295
     0
296
     0
110
72.38422587765263
120
51.60892144296045
130
0.0
111
1.0
121
0.0
131
0.0
112
0.0
122
1.0
132
0.0
297
     0
302
LEADER{
290
     1
291
     1
 10
72.19946108549322
 20
50.3237121427251
 30
0.0
 11
-1.0
 21
0.0
 31
0.0
 90
        0
 40
0.36
304
LEADER_LINE{
 10
72.38422587765263
 20
51.60892144296045
 30
0.0
 91
        0
305
}
271
     0
303
}
272
     9
273
     9
301
}
340
67
 90
   279616
170
     1
 91
-1056964608
341
5B
171
    -2
290
     1
291
     0
 41
0.36
 42
0.18
172
     2
343
55
173
     1
 95
        6
174
     1
175
     2
 92
-1056964608
292
     0
 93
-1056964608
 10
1.0
 20
1.0
 30
1.0
 43
0.0
176
     0
293
     0
294
     0
178
     0
179
     3
 45
1.0
271
     0
272
     9
273
     9
295
     1
  0
MTEXT
  5
10F3C
330
6C
100
AcDbEntity
  8
TEXT
100
AcDbMText
 10
30.375
 20
2.37499994213165
 30
0.0
 40
0.375
 41
5.519524215552523
 46
0.0
 71
     2
 72
     5
  1
DETAIL SCALE: 1" = 1"
 73
     1
 44
1.0
  0
MTEXT
  5
10F3E
330
6C
100
AcDbEntity
  8
TEXT
100
AcDbMText
 10
30.375
 20
3.43392232730673
 30
0.0
 40
0.5
 41
22.31716845338133
 46
0.0
 71
     8
 72
     5
  1
TRIFAB™ 601 FRAMING SYSTEM \PSCREW SPLINE ASSEMBLY (1" INFILL)\PTYPICAL CORNER DETAILS
 73
     1
 44
1.0
  0
MTEXT
  5
10F3F
330
6C
100
AcDbEntity
  8
TEXT
100
AcDbMText
 10
1.375
 20
2.374999942131637
 30
0.0
 40
0.375
 41
14.22387531454843
 46
0.0
 71
     1
 72
     5
  1
ENGINEERING CHANGE:  97910-219 (DECEMBER 2023)\PFILE NAME:  KCDC070 SHEET 05 OF 06.DWG
 73
     1
 44
1.0
101
Embedded Object
 70
     1
 10
1.0
 20
0.0
 30
0.0
 11
1.375
 21
2.374999942131637
 31
0.0
 40
14.22387531454843
 41
0.0
 42
13.71052182810368
 43
1.01944065484311
 71
     2
 72
     1
 44
14.22387531454843
 45
1.25
 73
     0
 74
     0
 46
0.0
  0
INSERT
  5
1158D
330
6C
100
AcDbEntity
  8
0
100
AcDbBlockReference
  2
Kawneer Logo English
 10
1.374999999999985
 20
2.875000015474157
 30
0.0
 41
5.337
 42
5.337
 43
5.337
  0
ENDSEC
  0
SECTION
  2
OBJECTS
  0
DICTIONARY
  5
C
330
0
100
AcDbDictionary
281
     1
  3
ACAD_CIP_PREVIOUS_PRODUCT_INFO
350
77
  3
ACAD_COLOR
350
63
  3
ACAD_DETAILVIEWSTYLE
350
1149A
  3
ACAD_GROUP
350
D
  3
ACAD_LAYOUT
350
62
  3
ACAD_MATERIAL
350
10
  3
ACAD_MLEADERSTYLE
350
66
  3
ACAD_MLINESTYLE
350
5F
  3
ACAD_PLOTSETTINGS
350
61
  3
ACAD_PLOTSTYLENAME
350
E
  3
ACAD_SCALELIST
350
42
  3
ACAD_SECTIONVIEWSTYLE
350
11498
  3
ACAD_TABLESTYLE
350
64
  3
ACAD_VISUALSTYLE
350
29
  3
ACDB_RECOMPOSE_DATA
350
116D1
  3
AcDbVariableDictionary
350
2379
  0
DICTIONARY
  5
2324
330
8
100
AcDbDictionary
280
     1
281
     1
  0
DICTIONARY
  5
677
330
2
100
AcDbDictionary
280
     1
281
     1
  3
ACAD_LAYERSTATES
360
678
  0
DICTIONARY
  5
B0B
330
B0A
100
AcDbDictionary
280
     1
281
     1
  0
DICTIONARY
  5
FF17
330
FF16
100
AcDbDictionary
280
     1
281
     1
  0
DICTIONARY
  5
1344
330
6C
100
AcDbDictionary
280
     1
281
     1
  3
ACAD_SORTENTS
360
1345
  0
DICTIONARY
  5
FF01
330
FF00
100
AcDbDictionary
280
     1
281
     1
  3
ACAD_SORTENTS
360
FF02
  0
DICTIONARY
  5
107B8
330
1079A
100
AcDbDictionary
280
     1
281
     1
  3
ACAD_SORTENTS
360
10B55
  0
DICTIONARY
  5
116C8
330
1123A
100
AcDbDictionary
280
     1
281
     1
  3
ACAD_SORTENTS
360
116C9
  0
DICTIONARY
  5
11432
330
10014
100
AcDbDictionary
280
     1
281
     1
  0
DICTIONARY
  5
11434
330
10015
100
AcDbDictionary
280
     1
281
     1
  0
DICTIONARY
  5
11436
330
1029B
100
AcDbDictionary
280
     1
281
     1
  0
DICTIONARY
  5
11438
330
1029C
100
AcDbDictionary
280
     1
281
     1
  0
DICTIONARY
  5
1143A
330
10597
100
AcDbDictionary
280
     1
281
     1
  0
DICTIONARY
  5
1143C
330
105A4
100
AcDbDictionary
280
     1
281
     1
  0
DICTIONARY
  5
1143E
330
10AAC
100
AcDbDictionary
280
     1
281
     1
  0
DICTIONARY
  5
11440
330
10AAE
100
AcDbDictionary
280
     1
281
     1
  0
DICTIONARY
  5
11442
330
10CA9
100
AcDbDictionary
280
     1
281
     1
  0
DICTIONARY
  5
11444
330
10CAA
100
AcDbDictionary
280
     1
281
     1
  0
DICTIONARY
  5
10D4C
330
10D4B
100
AcDbDictionary
280
     1
281
     1
  3
ACAD_DIMASSOC
360
10D4D
  0
XRECORD
  5
77
102
{ACAD_REACTORS
330
C
102
}
330
C
100
AcDbXrecord
280
     1
300
ACD
300
2022
300

  0
DICTIONARY
  5
63
102
{ACAD_REACTORS
330
C
102
}
330
C
100
AcDbDictionary
281
     1
  0
DICTIONARY
  5
1149A
102
{ACAD_REACTORS
330
C
102
}
330
C
100
AcDbDictionary
281
     1
  3
Imperial24
350
1149B
  0
DICTIONARY
  5
D
102
{ACAD_REACTORS
330
C
102
}
330
C
100
AcDbDictionary
281
     1
  0
DICTIONARY
  5
62
102
{ACAD_REACTORS
330
C
102
}
330
C
100
AcDbDictionary
281
     1
  3
Layout1
350
6B
  3
Layout2
350
73
  3
Model
350
6F
  0
DICTIONARY
  5
10
102
{ACAD_REACTORS
330
C
102
}
330
C
100
AcDbDictionary
281
     1
  3
ByBlock
350
19
  3
ByLayer
350
11
  3
Global
350
21
  0
DICTIONARY
  5
66
102
{ACAD_REACTORS
330
C
102
}
330
C
100
AcDbDictionary
281
     1
  3
Standard
350
67
  0
DICTIONARY
  5
5F
102
{ACAD_REACTORS
330
C
102
}
330
C
100
AcDbDictionary
281
     1
  3
Standard
350
60
  0
DICTIONARY
  5
61
102
{ACAD_REACTORS
330
C
102
}
330
C
100
AcDbDictionary
281
     1
  0
ACDBDICTIONARYWDFLT
  5
E
102
{ACAD_REACTORS
330
C
102
}
330
C
100
AcDbDictionary
281
     1
  3
Normal
350
F
100
AcDbDictionaryWithDefault
340
F
  0
DICTIONARY
  5
42
102
{ACAD_REACTORS
330
C
102
}
330
C
100
AcDbDictionary
281
     1
  3
A0
350
43
  3
A1
350
114A3
  3
A2
350
114A4
  3
A3
350
114A5
  3
A4
350
114A6
  3
A5
350
114A7
  3
A6
350
114A8
  3
A7
350
114A9
  3
A8
350
114AA
  3
A9
350
114AB
  3
B0
350
114AC
  3
B1
350
114AD
  3
B2
350
114AE
  3
B3
350
114AF
  3
B4
350
114B0
  3
B5
350
114B1
  3
B6
350
114B2
  0
DICTIONARY
  5
11498
102
{ACAD_REACTORS
330
C
102
}
330
C
100
AcDbDictionary
281
     1
  3
Imperial24
350
11499
  0
DICTIONARY
  5
64
102
{ACAD_REACTORS
330
C
102
}
330
C
100
AcDbDictionary
281
     1
  3
Standard
350
65
  0
DICTIONARY
  5
29
102
{ACAD_REACTORS
330
C
102
}
330
C
100
AcDbDictionary
281
     1
  3
2dWireframe
350
2F
  3
3D Hidden
350
AB2B
  3
3dWireframe
350
AB2C
  3
Basic
350
2E
  3
Brighten
350
35
  3
ColorChange
350
39
  3
Conceptual
350
32
  3
Dim
350
34
  3
EdgeColorOff
350
41
  3
Facepattern
350
38
  3
Flat
350
2A
  3
FlatWithEdges
350
2B
  3
Gouraud
350
2C
  3
GouraudWithEdges
350
2D
  3
Hidden
350
31
  3
JitterOff
350
3F
  3
Linepattern
350
37
  3
OverhangOff
350
40
  3
Realistic
350
33
  3
Shaded
350
3E
  3
Shaded with edges
350
3D
  3
Shades of Gray
350
3A
  3
Sketchy
350
3B
  3
Thicken
350
36
  3
Wireframe
350
30
  3
X-Ray
350
3C
  0
XRECORD
  5
116D1
102
{ACAD_REACTORS
330
C
102
}
330
C
100
AcDbXrecord
280
     1
 90
        1
330
65
  0
DICTIONARY
  5
2379
102
{ACAD_REACTORS
330
C
102
}
330
C
100
AcDbDictionary
281
     1
  3
CANNOSCALE
350
237D
  3
CMLEADERSTYLE
350
237B
  3
CTABLESTYLE
350
237A
  3
CVIEWDETAILSTYLE
350
114B3
  3
CVIEWSECTIONSTYLE
350
114B4
  3
DIMASSOC
350
2384
  3
HIDETEXT
350
2383
  3
INDEXCTL
350
2382
  3
LAYEREVAL
350
237F
  3
LAYERNOTIFY
350
2380
  3
LIGHTINGUNITS
350
237E
  3
MSLTSCALE
350
237C
  3
SORTENTS
350
2381
  0
DICTIONARY
  5
678
102
{ACAD_REACTORS
330
677
102
}
330
677
100
AcDbDictionary
281
     1
  0
SORTENTSTABLE
  5
1345
102
{ACAD_REACTORS
330
1344
102
}
330
1344
100
AcDbSortentsTable
330
6C
331
5E22
  5
6072
331
5E23
  5
608A
331
5E25
  5
60E2
331
5E29
  5
617D
331
5E2A
  5
6180
331
5E2B
  5
618F
331
5E34
  5
631D
331
5E35
  5
631E
331
618F
  5
29BB
331
6219
  5
29BA
331
6365
  5
6E88
331
643C
  5
6FA6
331
64A2
  5
6FCD
331
64EF
  5
70E2
331
65BF
  5
71AB
331
67E8
  5
FCC
331
6E7F
  5
29BF
331
6E80
  5
29BD
331
6E82
  5
29B6
331
6E83
  5
29B9
331
6FCD
  5
6BD5
331
7076
  5
29A6
331
749C
  5
29A8
331
74B9
  5
29A9
331
9780
  5
29B8
331
AE05
  5
AE0A
331
AE06
  5
AE0B
331
AE07
  5
AE0C
331
B8EE
  5
29BE
331
B8EF
  5
29BC
331
B8F0
  5
29C0
331
DA8F
  5
6178
331
1056E
  5
105A9
331
10570
  5
1056F
331
1057B
  5
1057A
331
1057C
  5
1057B
331
1057D
  5
1057C
331
1057E
  5
1057D
331
1057F
  5
1057E
331
10580
  5
1057F
331
10581
  5
10580
331
10582
  5
10581
331
10583
  5
10582
331
10584
  5
10583
331
10585
  5
10584
331
10586
  5
10585
331
10587
  5
10586
331
10588
  5
10587
331
10589
  5
10588
331
1058A
  5
10589
331
1058B
  5
1058A
331
1058C
  5
1058B
331
1058D
  5
1058C
331
1058E
  5
1058D
331
1058F
  5
1058E
331
10590
  5
1058F
331
10591
  5
10590
331
10592
  5
10591
331
10593
  5
10592
331
10594
  5
10593
331
10595
  5
10594
331
10596
  5
10595
331
10597
  5
10596
331
1059B
  5
1059A
331
1059C
  5
1059B
331
1059D
  5
1059C
331
1059E
  5
1059D
331
1059F
  5
1059E
331
105A0
  5
1059F
331
105A1
  5
105A0
331
105A2
  5
105A1
331
105A3
  5
105A2
331
105A4
  5
105A3
331
105A5
  5
105A4
331
10A84
  5
10ABB
331
10A86
  5
10A85
331
10A91
  5
10A90
331
10A92
  5
10A91
331
10A93
  5
10A92
331
10A94
  5
10A93
331
10A95
  5
10A94
331
10A96
  5
10A95
331
10A97
  5
10A96
331
10A98
  5
10A97
331
10A99
  5
10A98
331
10A9A
  5
10A99
331
10A9B
  5
10A9A
331
10A9C
  5
10A9B
331
10A9D
  5
10A9C
331
10A9E
  5
10A9D
331
10A9F
  5
10A9E
331
10AA0
  5
10A9F
331
10AA1
  5
10AA0
331
10AA2
  5
10AA1
331
10AA3
  5
10AA2
331
10AA4
  5
10AA3
331
10AA5
  5
10AA4
331
10AA6
  5
10AA5
331
10AA7
  5
10AA6
331
10AA8
  5
10AA7
331
10AA9
  5
10AA8
331
10AAA
  5
10AA9
331
10AAB
  5
10AAA
331
10AAC
  5
10AAB
331
10AAD
  5
10AAC
331
10AAE
  5
10AAD
331
10AB2
  5
10AB1
331
10AB3
  5
10AB2
331
10AB4
  5
10AB3
331
10AB5
  5
10AB4
331
10AB6
  5
10AB5
331
10AB7
  5
10AB6
  0
SORTENTSTABLE
  5
FF02
102
{ACAD_REACTORS
330
FF01
102
}
330
FF01
100
AcDbSortentsTable
330
FF00
  0
SORTENTSTABLE
  5
10B55
102
{ACAD_REACTORS
330
107B8
102
}
330
107B8
100
AcDbSortentsTable
330
1079A
  0
SORTENTSTABLE
  5
116C9
102
{ACAD_REACTORS
330
116C8
102
}
330
116C8
100
AcDbSortentsTable
330
1123A
  0
DIMASSOC
  5
10D4D
102
{ACAD_REACTORS
330
10D4C
102
}
330
10D4C
100
AcDbDimAssoc
330
10D4B
 90
        1
 70
     0
 71
     0
  1
AcDbOsnapPointRef
 72
    10
331
10D2B
 73
     2
 91
        1
 40
0.4069342858943687
 10
0.0
 20
0.0
 30
0.0
 75
     0
  0
ACDBDETAILVIEWSTYLE
  5
1149B
102
{ACAD_REACTORS
330
1149A
102
}
330
1149A
100
AcDbModelDocViewStyle
 70
     0
  3
Imperial24
290
     0
300
Imperial24
 90
        0
100
AcDbDetailViewStyle
 70
     0
 71
     0
 90
        3
 71
     1
340
55
 62
   256
 40
0.24
340
0
 62
   256
 40
0.24
300

 40
0.36
280
     3
 71
     2
340
5D
 90
       25
 62
   256
 71
     3
340
55
 62
   256
 40
0.24
 90
        1
 40
0.75
 90
        1
300
%<\AcVar ViewType \f "%tc1">% %<\AcVar ViewDetailId>%\PSCALE %<\AcVar ViewScale \f "%sn">%
 71
     4
340
5D
 90
       25
 62
   256
340
5D
 90
       25
 62
   256
280
     0
  0
LAYOUT
  5
6B
102
{ACAD_REACTORS
330
62
102
}
330
62
100
AcDbPlotSettings
  1

  2
\\noakci-hub21\KCI_ENG1_HPcLJ5550_PCL6_64
  4

  6

 40
0.0
 41
0.0
 42
0.0
 43
0.0
 44
0.0
 45
0.0
 46
0.0
 47
0.0
 48
0.0
 49
0.0
140
0.0
141
0.0
142
1.0
143
1.0
 70
   688
 72
     0
 73
     0
 74
     5
  7
monochrome2.ctb
 75
    16
147
1.0
 76
     0
 77
     2
 78
   300
148
0.0
149
0.0
100
AcDbLayout
  1
Layout1
 70
     1
 71
     1
 10
0.0
 20
0.0
 11
12.0
 21
9.0
 12
0.0
 22
0.0
 32
0.0
 14
1.000000000000000E+20
 24
1.000000000000000E+20
 34
1.000000000000000E+20
 15
-1.000000000000000E+20
 25
-1.000000000000000E+20
 35
-1.000000000000000E+20
146
0.0
 13
0.0
 23
0.0
 33
0.0
 16
1.0
 26
0.0
 36
0.0
 17
0.0
 27
1.0
 37
0.0
 76
     0
330
68
  0
LAYOUT
  5
73
102
{ACAD_REACTORS
330
62
102
}
330
62
100
AcDbPlotSettings
  1

  2
\\noakci-hub21\KCI_ENG1_HPcLJ5550_PCL6_64
  4

  6

 40
0.0
 41
0.0
 42
0.0
 43
0.0
 44
0.0
 45
0.0
 46
0.0
 47
0.0
 48
0.0
 49
0.0
140
0.0
141
0.0
142
1.0
143
1.0
 70
   688
 72
     0
 73
     0
 74
     5
  7
monochrome2.ctb
 75
    16
147
1.0
 76
     0
 77
     2
 78
   300
148
0.0
149
0.0
100
AcDbLayout
  1
Layout2
 70
     1
 71
     2
 10
0.0
 20
0.0
 11
12.0
 21
9.0
 12
0.0
 22
0.0
 32
0.0
 14
0.0
 24
0.0
 34
0.0
 15
0.0
 25
0.0
 35
0.0
146
0.0
 13
0.0
 23
0.0
 33
0.0
 16
1.0
 26
0.0
 36
0.0
 17
0.0
 27
1.0
 37
0.0
 76
     0
330
70
  0
LAYOUT
  5
6F
102
{ACAD_XDICTIONARY
360
6327
102
}
102
{ACAD_REACTORS
330
62
102
}
330
62
100
AcDbPlotSettings
  1

  2
\\noakci-hub31\KCI_ENG6_SHARP_MX5140N_PCL6_64
  4
Tabloid
  6

 40
5.027082920074462
 41
5.027069091796875
 42
5.027099609375
 43
5.027069091796875
 44
279.3999938964844
 45
431.7999877929687
 46
0.596697188993578
 47
0.0
 48
0.0
 49
0.0
140
0.0
141
0.0
142
1.0
143
6.583049763287654
 70
  3764
 72
     0
 73
     1
 74
     1
  7
monochrome2.ctb
 75
     0
147
0.151905277334648
 76
     0
 77
     2
 78
   300
148
-9.479167228156024
149
-9.423393089134275
100
AcDbLayout
  1
Model
 70
     1
 71
     0
 10
0.0
 20
0.0
 11
12.0
 21
9.0
 12
0.0
 22
0.0
 32
0.0
 14
0.0
 24
0.0
 34
0.0
 15
0.0
 25
0.0
 35
0.0
146
0.0
 13
0.0
 23
0.0
 33
0.0
 16
1.0
 26
0.0
 36
0.0
 17
0.0
 27
1.0
 37
0.0
 76
     0
330
6C
331
57
1001
ACAD_PSEXT
1000
\\noakci-hub31\KCI_ENG6_SHARP_MX5140N_PCL6_64
1000
SHARP MX-1810U PCL6
1000
2nd Floor Engineering
1000
Sharp MX-5140N
1070
     0
  0
MATERIAL
  5
19
102
{ACAD_XDICTIONARY
360
1A
102
}
102
{ACAD_REACTORS
330
10
102
}
330
10
100
AcDbMaterial
  1
ByBlock
 72
     0
 43
0.0208333333333333
 43
0.0
 43
0.0
 43
0.0
 43
0.0
 43
0.0208333333333333
 43
0.0
 43
0.0
 43
0.0
 43
0.0
 43
1.0
 43
0.0
 43
0.0
 43
0.0
 43
0.0
 43
1.0
 77
     0
 47
0.0208333333333333
 47
0.0
 47
0.0
 47
0.0
 47
0.0
 47
0.0208333333333333
 47
0.0
 47
0.0
 47
0.0
 47
0.0
 47
1.0
 47
0.0
 47
0.0
 47
0.0
 47
0.0
 47
1.0
171
     0
 49
0.0208333333333333
 49
0.0
 49
0.0
 49
0.0
 49
0.0
 49
0.0208333333333333
 49
0.0
 49
0.0
 49
0.0
 49
0.0
 49
1.0
 49
0.0
 49
0.0
 49
0.0
 49
0.0
 49
1.0
175
     0
142
0.0208333333333333
142
0.0
142
0.0
142
0.0
142
0.0
142
0.0208333333333333
142
0.0
142
0.0
142
0.0
142
0.0
142
1.0
142
0.0
142
0.0
142
0.0
142
0.0
142
1.0
179
     0
144
0.0208333333333333
144
0.0
144
0.0
144
0.0
144
0.0
144
0.0208333333333333
144
0.0
144
0.0
144
0.0
144
0.0
144
1.0
144
0.0
144
0.0
144
0.0
144
0.0
144
1.0
147
0.0208333333333333
147
0.0
147
0.0
147
0.0
147
0.0
147
0.0208333333333333
147
0.0
147
0.0
147
0.0
147
0.0
147
1.0
147
0.0
147
0.0
147
0.0
147
0.0
147
1.0
  0
MATERIAL
  5
11
102
{ACAD_XDICTIONARY
360
12
102
}
102
{ACAD_REACTORS
330
10
102
}
330
10
100
AcDbMaterial
  1
ByLayer
 72
     0
 43
0.0208333333333333
 43
0.0
 43
0.0
 43
0.0
 43
0.0
 43
0.0208333333333333
 43
0.0
 43
0.0
 43
0.0
 43
0.0
 43
1.0
 43
0.0
 43
0.0
 43
0.0
 43
0.0
 43
1.0
 77
     0
 47
0.0208333333333333
 47
0.0
 47
0.0
 47
0.0
 47
0.0
 47
0.0208333333333333
 47
0.0
 47
0.0
 47
0.0
 47
0.0
 47
1.0
 47
0.0
 47
0.0
 47
0.0
 47
0.0
 47
1.0
171
     0
 49
0.0208333333333333
 49
0.0
 49
0.0
 49
0.0
 49
0.0
 49
0.0208333333333333
 49
0.0
 49
0.0
 49
0.0
 49
0.0
 49
1.0
 49
0.0
 49
0.0
 49
0.0
 49
0.0
 49
1.0
175
     0
142
0.0208333333333333
142
0.0
142
0.0
142
0.0
142
0.0
142
0.0208333333333333
142
0.0
142
0.0
142
0.0
142
0.0
142
1.0
142
0.0
142
0.0
142
0.0
142
0.0
142
1.0
179
     0
144
0.0208333333333333
144
0.0
144
0.0
144
0.0
144
0.0
144
0.0208333333333333
144
0.0
144
0.0
144
0.0
144
0.0
144
1.0
144
0.0
144
0.0
144
0.0
144
0.0
144
1.0
147
0.0208333333333333
147
0.0
147
0.0
147
0.0
147
0.0
147
0.0208333333333333
147
0.0
147
0.0
147
0.0
147
0.0
147
1.0
147
0.0
147
0.0
147
0.0
147
0.0
147
1.0
  0
MATERIAL
  5
21
102
{ACAD_XDICTIONARY
360
22
102
}
102
{ACAD_REACTORS
330
10
102
}
330
10
100
AcDbMaterial
  1
Global
 72
     0
 43
0.0208333333333333
 43
0.0
 43
0.0
 43
0.0
 43
0.0
 43
0.0208333333333333
 43
0.0
 43
0.0
 43
0.0
 43
0.0
 43
1.0
 43
0.0
 43
0.0
 43
0.0
 43
0.0
 43
1.0
 77
     0
 47
0.0208333333333333
 47
0.0
 47
0.0
 47
0.0
 47
0.0
 47
0.0208333333333333
 47
0.0
 47
0.0
 47
0.0
 47
0.0
 47
1.0
 47
0.0
 47
0.0
 47
0.0
 47
0.0
 47
1.0
171
     0
 49
0.0208333333333333
 49
0.0
 49
0.0
 49
0.0
 49
0.0
 49
0.0208333333333333
 49
0.0
 49
0.0
 49
0.0
 49
0.0
 49
1.0
 49
0.0
 49
0.0
 49
0.0
 49
0.0
 49
1.0
175
     0
142
0.0208333333333333
142
0.0
142
0.0
142
0.0
142
0.0
142
0.0208333333333333
142
0.0
142
0.0
142
0.0
142
0.0
142
1.0
142
0.0
142
0.0
142
0.0
142
0.0
142
1.0
179
     0
144
0.0208333333333333
144
0.0
144
0.0
144
0.0
144
0.0
144
0.0208333333333333
144
0.0
144
0.0
144
0.0
144
0.0
144
1.0
144
0.0
144
0.0
144
0.0
144
0.0
144
1.0
147
0.0208333333333333
147
0.0
147
0.0
147
0.0
147
0.0
147
0.0208333333333333
147
0.0
147
0.0
147
0.0
147
0.0
147
1.0
147
0.0
147
0.0
147
0.0
147
0.0
147
1.0
  0
MLEADERSTYLE
  5
67
102
{ACAD_REACTORS
330
66
330
10D4B
102
}
330
66
100
AcDbMLeaderStyle
179
     2
170
     2
171
     1
172
     0
 90
        2
 40
0.0
 41
0.0
173
     1
 91
-1056964608
340
5B
 92
       -2
290
     1
 42
0.09
291
     1
 43
0.36
  3
Standard
 44
0.18
300

342
55
174
     1
178
     6
175
     1
176
     0
 93
-1056964608
 45
0.18
292
     0
297
     0
 46
0.18
 94
-1056964608
 47
1.0
 49
1.0
140
1.0
293
     1
141
0.0
294
     1
177
     0
142
1.0
295
     0
296
     0
143
0.125
271
     0
272
     9
273
     9
298
     1
  0
MLINESTYLE
  5
60
102
{ACAD_REACTORS
330
5F
102
}
330
5F
100
AcDbMlineStyle
  2
STANDARD
 70
     0
  3

 62
   256
 51
90.0
 52
90.0
 71
     2
 49
0.5
 62
   256
  6
BYLAYER
 49
-0.5
 62
   256
  6
BYLAYER
  0
ACDBPLACEHOLDER
  5
F
102
{ACAD_REACTORS
330
E
102
}
330
E
  0
SCALE
  5
43
102
{ACAD_REACTORS
330
42
102
}
330
42
100
AcDbScale
 70
     0
300
1:1
140
1.0
141
1.0
290
     1
  0
SCALE
  5
114A3
102
{ACAD_REACTORS
330
42
102
}
330
42
100
AcDbScale
 70
     0
300
1/128" = 1'-0"
140
0.0078125
141
12.0
290
     0
  0
SCALE
  5
114A4
102
{ACAD_REACTORS
330
42
102
}
330
42
100
AcDbScale
 70
     0
300
1/64" = 1'-0"
140
0.015625
141
12.0
290
     0
  0
SCALE
  5
114A5
102
{ACAD_REACTORS
330
42
102
}
330
42
100
AcDbScale
 70
     0
300
1/32" = 1'-0"
140
0.03125
141
12.0
290
     0
  0
SCALE
  5
114A6
102
{ACAD_REACTORS
330
42
102
}
330
42
100
AcDbScale
 70
     0
300
1/16" = 1'-0"
140
0.0625
141
12.0
290
     0
  0
SCALE
  5
114A7
102
{ACAD_REACTORS
330
42
102
}
330
42
100
AcDbScale
 70
     0
300
3/32" = 1'-0"
140
0.09375
141
12.0
290
     0
  0
SCALE
  5
114A8
102
{ACAD_REACTORS
330
42
102
}
330
42
100
AcDbScale
 70
     0
300
1/8" = 1'-0"
140
0.125
141
12.0
290
     0
  0
SCALE
  5
114A9
102
{ACAD_REACTORS
330
42
102
}
330
42
100
AcDbScale
 70
     0
300
3/16" = 1'-0"
140
0.1875
141
12.0
290
     0
  0
SCALE
  5
114AA
102
{ACAD_REACTORS
330
42
102
}
330
42
100
AcDbScale
 70
     0
300
1/4" = 1'-0"
140
0.25
141
12.0
290
     0
  0
SCALE
  5
114AB
102
{ACAD_REACTORS
330
42
102
}
330
42
100
AcDbScale
 70
     0
300
3/8" = 1'-0"
140
0.375
141
12.0
290
     0
  0
SCALE
  5
114AC
102
{ACAD_REACTORS
330
42
102
}
330
42
100
AcDbScale
 70
     0
300
1/2" = 1'-0"
140
0.5
141
12.0
290
     0
  0
SCALE
  5
114AD
102
{ACAD_REACTORS
330
42
102
}
330
42
100
AcDbScale
 70
     0
300
3/4" = 1'-0"
140
0.75
141
12.0
290
     0
  0
SCALE
  5
114AE
102
{ACAD_REACTORS
330
42
102
}
330
42
100
AcDbScale
 70
     0
300
1" = 1'-0"
140
1.0
141
12.0
290
     0
  0
SCALE
  5
114AF
102
{ACAD_REACTORS
330
42
102
}
330
42
100
AcDbScale
 70
     0
300
1-1/2" = 1'-0"
140
1.5
141
12.0
290
     0
  0
SCALE
  5
114B0
102
{ACAD_REACTORS
330
42
102
}
330
42
100
AcDbScale
 70
     0
300
3" = 1'-0"
140
3.0
141
12.0
290
     0
  0
SCALE
  5
114B1
102
{ACAD_REACTORS
330
42
102
}
330
42
100
AcDbScale
 70
     0
300
6" = 1'-0"
140
6.0
141
12.0
290
     0
  0
SCALE
  5
114B2
102
{ACAD_REACTORS
330
42
102
}
330
42
100
AcDbScale
 70
     0
300
1'-0" = 1'-0"
140
12.0
141
12.0
290
     0
  0
ACDBSECTIONVIEWSTYLE
  5
11499
102
{ACAD_REACTORS
330
11498
102
}
330
11498
100
AcDbModelDocViewStyle
 70
     0
  3
Imperial24
290
     0
300
Imperial24
 90
        0
100
AcDbSectionViewStyle
 70
     0
 71
     0
 90
       78
 71
     1
340
55
 62
   256
 40
0.24
340
0
340
0
 62
   256
 40
0.24
300
I, O, Q, S, X, Z
 40
0.48
 90
        3
 40
0.18
 90
        1
 71
     2
340
5D
 90
       25
 62
   256
340
5D
 90
       50
 62
   256
 40
0.24
 40
0.0
 40
0.24
 71
     3
340
55
 62
   256
 40
0.24
 90
        1
 40
0.75
 90
        1
300
%<\AcVar ViewType \f "%tc1">% %<\AcVar ViewSectionStartId>%-%<\AcVar ViewSectionEndId>%\PSCALE %<\AcVar ViewScale \f "%sn">%
 71
     4
 62
   256
 62
   257
300
ANSI31
 40
1.0
 90
        0
290
     0
290
     0
 90
        6
 40
0.0
 40
1.570796326794896
 40
0.2617993877991494
 40
1.308996938995747
 40
-0.2617993877991494
 40
1.832595714594046
  0
TABLESTYLE
  5
65
102
{ACAD_XDICTIONARY
360
231A
102
}
102
{ACAD_REACTORS
330
64
102
}
330
64
100
AcDbTableStyle
280
     0
  3
Standard
 70
     0
 71
     0
 40
0.06
 41
0.06
280
     0
281
     0
  7
Standard
140
0.18
170
     2
 62
     0
 63
     7
283
     0
 90
      512
 91
        0
  1

274
    -2
284
     1
 64
     0
275
    -2
285
     1
 65
     0
276
    -2
286
     1
 66
     0
277
    -2
287
     1
 67
     0
278
    -2
288
     1
 68
     0
279
    -2
289
     1
 69
     0
  7
Standard
140
0.25
170
     5
 62
     0
 63
     7
283
     0
 90
      512
 91
        0
  1

274
    -2
284
     1
 64
     0
275
    -2
285
     1
 65
     0
276
    -2
286
     1
 66
     0
277
    -2
287
     1
 67
     0
278
    -2
288
     1
 68
     0
279
    -2
289
     1
 69
     0
  7
Standard
140
0.18
170
     5
 62
     0
 63
     7
283
     0
 90
      512
 91
        0
  1

274
    -2
284
     1
 64
     0
275
    -2
285
     1
 65
     0
276
    -2
286
     1
 66
     0
277
    -2
287
     1
 67
     0
278
    -2
288
     1
 68
     0
279
    -2
289
     1
 69
     0
  0
VISUALSTYLE
  5
2F
102
{ACAD_REACTORS
330
29
102
}
330
29
100
AcDbVisualStyle
  2
2dWireframe
 70
     4
177
     3
291
     0
 70
    58
 90
        0
176
     1
 90
        2
176
     1
 90
        0
176
     1
 90
        0
176
     1
 40
0.6
176
     1
 40
30.0
176
     1
 62
     7
176
     1
 90
        1
176
     1
 90
        4
176
     1
 62
     7
176
     1
 62
   257
176
     1
 90
        1
176
     1
 90
        1
176
     1
 40
1.0
176
     1
 90
        0
176
     1
 62
   257
176
     1
 40
1.0
176
     1
 90
        1
176
     1
 90
        6
176
     1
 90
        2
176
     1
 62
     7
176
     1
 90
        5
176
     1
 90
        0
176
     1
 90
        0
176
     1
290
     0
176
     1
 90
        1
176
     1
 40
0.0
176
     1
 90
        0
176
     1
290
     1
176
     1
290
     1
176
     1
290
     0
176
     1
290
     0
176
     1
290
     0
176
     1
290
     0
176
     1
290
     0
176
     1
290
     0
176
     1
290
     0
176
     1
 90
       50
176
     1
 40
0.0
176
     1
 40
1.0
176
     1
 90
        0
176
     1
 62
    18
420
        0
176
     1
 90
       50
176
     1
 90
        3
176
     1
 62
     5
420
      255
176
     1
290
     0
176
     1
 90
       50
176
     1
 90
       50
176
     1
 90
       50
176
     1
290
     0
176
     1
 90
       50
176
     1
 62
   256
176
     0
 40
1.0
176
     0
 90
        2
176
     1
  1
strokes_ogs.tif
176
     1
290
     0
176
     1
 40
1.0
176
     1
 40
1.0
176
     1
  0
VISUALSTYLE
  5
AB2B
102
{ACAD_REACTORS
330
29
102
}
330
29
100
AcDbVisualStyle
  2
3D Hidden
 70
     6
177
     3
291
     0
 70
    58
 90
        1
176
     1
 90
        2
176
     1
 90
        2
176
     1
 90
        0
176
     1
 40
0.6
176
     1
 40
30.0
176
     1
 62
     7
176
     1
 90
        2
176
     1
 90
        2
176
     1
 62
     7
176
     1
 62
   257
176
     1
 90
        2
176
     1
 90
        1
176
     1
 40
40.0
176
     1
 90
        0
176
     1
 62
   257
176
     1
 40
1.0
176
     1
 90
        1
176
     1
 90
        6
176
     1
 90
        2
176
     1
 62
     7
176
     1
 90
        3
176
     1
 90
        0
176
     1
 90
        0
176
     1
290
     0
176
     1
 90
        1
176
     1
 40
0.0
176
     1
 90
        0
176
     1
290
     0
176
     1
290
     1
176
     1
290
     1
176
     1
290
     0
176
     1
290
     0
176
     1
290
     0
176
     1
290
     0
176
     1
290
     0
176
     1
290
     0
176
     1
 90
       50
176
     1
 40
0.0
176
     1
 40
1.0
176
     1
 90
        0
176
     1
 62
    18
420
        0
176
     1
 90
       50
176
     1
 90
        3
176
     1
 62
     5
420
      255
176
     1
290
     0
176
     1
 90
       50
176
     1
 90
       50
176
     1
 90
       50
176
     1
290
     0
176
     1
 90
       50
176
     1
 62
   256
176
     0
 40
1.0
176
     0
 90
        2
176
     1
  1
strokes_ogs.tif
176
     1
290
     0
176
     1
 40
1.0
176
     1
 40
1.0
176
     1
  0
VISUALSTYLE
  5
AB2C
102
{ACAD_REACTORS
330
29
102
}
330
29
100
AcDbVisualStyle
  2
3dWireframe
 70
     5
177
     3
291
     0
 70
    58
 90
        0
176
     1
 90
        2
176
     1
 90
        0
176
     1
 90
        0
176
     1
 40
0.6
176
     1
 40
30.0
176
     1
 62
     7
176
     1
 90
        1
176
     1
 90
        4
176
     1
 62
     7
176
     1
 62
   257
176
     1
 90
        1
176
     1
 90
        1
176
     1
 40
1.0
176
     1
 90
        0
176
     1
 62
   257
176
     1
 40
1.0
176
     1
 90
        1
176
     1
 90
        6
176
     1
 90
        2
176
     1
 62
     7
176
     1
 90
        5
176
     1
 90
        0
176
     1
 90
        0
176
     1
290
     0
176
     1
 90
        1
176
     1
 40
0.0
176
     1
 90
        0
176
     1
290
     0
176
     1
290
     1
176
     1
290
     1
176
     1
290
     0
176
     1
290
     0
176
     1
290
     0
176
     1
290
     0
176
     1
290
     0
176
     1
290
     0
176
     1
 90
       50
176
     1
 40
0.0
176
     1
 40
1.0
176
     1
 90
        0
176
     1
 62
    18
420
        0
176
     1
 90
       50
176
     1
 90
        3
176
     1
 62
     5
420
      255
176
     1
290
     0
176
     1
 90
       50
176
     1
 90
       50
176
     1
 90
       50
176
     1
290
     0
176
     1
 90
       50
176
     1
 62
   256
176
     0
 40
1.0
176
     0
 90
        2
176
     1
  1
strokes_ogs.tif
176
     1
290
     0
176
     1
 40
1.0
176
     1
 40
1.0
176
     1
  0
VISUALSTYLE
  5
2E
102
{ACAD_REACTORS
330
29
102
}
330
29
100
AcDbVisualStyle
  2
Basic
 70
     7
177
     3
291
     1
 70
    58
 90
        1
176
     1
 90
        0
176
     1
 90
        1
176
     1
 90
        0
176
     1
 40
0.6
176
     1
 40
30.0
176
     1
 62
     7
176
     1
 90
        0
176
     1
 90
        4
176
     1
 62
     7
176
     1
 62
   257
176
     1
 90
        1
176
     1
 90
        1
176
     1
 40
1.0
176
     1
 90
        8
176
     1
 62
     7
176
     1
 40
1.0
176
     1
 90
        1
176
     1
 90
        6
176
     1
 90
        2
176
     1
 62
     7
176
     1
 90
        5
176
     1
 90
        0
176
     1
 90
        0
176
     1
290
     0
176
     1
 90
        1
176
     1
 40
0.0
176
     1
 90
        0
176
     1
290
     0
176
     1
290
     1
176
     1
290
     1
176
     1
290
     0
176
     1
290
     0
176
     1
290
     0
176
     1
290
     0
176
     1
290
     0
176
     1
290
     0
176
     1
 90
       50
176
     1
 40
0.0
176
     1
 40
1.0
176
     1
 90
        0
176
     1
 62
    18
420
        0
176
     1
 90
       50
176
     1
 90
        3
176
     1
 62
     5
420
      255
176
     1
290
     0
176
     1
 90
       50
176
     1
 90
       50
176
     1
 90
       50
176
     1
290
     0
176
     1
 90
       50
176
     1
 62
   256
176
     0
 40
1.0
176
     0
 90
        2
176
     1
  1
strokes_ogs.tif
176
     1
290
     0
176
     1
 40
1.0
176
     1
 40
1.0
176
     1
  0
VISUALSTYLE
  5
35
102
{ACAD_REACTORS
330
29
102
}
330
29
100
AcDbVisualStyle
  2
Brighten
 70
    12
177
     3
291
     1
 70
    58
 90
        2
176
     1
 90
        2
176
     1
 90
        0
176
     1
 90
        0
176
     1
 40
0.6
176
     1
 40
30.0
176
     1
 62
     7
176
     1
 90
        1
176
     1
 90
        4
176
     1
 62
     7
176
     1
 62
   257
176
     1
 90
        1
176
     1
 90
        1
176
     1
 40
1.0
176
     1
 90
        8
176
     1
 62
     7
176
     1
 40
1.0
176
     1
 90
        1
176
     1
 90
        6
176
     1
 90
        2
176
     1
 62
     7
176
     1
 90
        5
176
     1
 90
        0
176
     1
 90
        0
176
     1
290
     0
176
     1
 90
        1
176
     1
 40
50.0
176
     1
 90
        0
176
     1
290
     0
176
     1
290
     1
176
     1
290
     1
176
     1
290
     0
176
     1
290
     0
176
     1
290
     0
176
     1
290
     0
176
     1
290
     0
176
     1
290
     0
176
     1
 90
       50
176
     1
 40
0.0
176
     1
 40
1.0
176
     1
 90
        0
176
     1
 62
    18
420
        0
176
     1
 90
       50
176
     1
 90
        3
176
     1
 62
     5
420
      255
176
     1
290
     0
176
     1
 90
       50
176
     1
 90
       50
176
     1
 90
       50
176
     1
290
     0
176
     1
 90
       50
176
     1
 62
   256
176
     0
 40
1.0
176
     0
 90
        2
176
     1
  1
strokes_ogs.tif
176
     1
290
     0
176
     1
 40
1.0
176
     1
 40
1.0
176
     1
  0
VISUALSTYLE
  5
39
102
{ACAD_REACTORS
330
29
102
}
330
29
100
AcDbVisualStyle
  2
ColorChange
 70
    16
177
     3
291
     1
 70
    58
 90
        2
176
     1
 90
        2
176
     1
 90
        3
176
     1
 90
        0
176
     1
 40
0.6
176
     1
 40
30.0
176
     1
 62
     8
176
     1
 90
        1
176
     1
 90
        4
176
     1
 62
     7
176
     1
 62
   257
176
     1
 90
        1
176
     1
 90
        1
176
     1
 40
1.0
176
     1
 90
        8
176
     1
 62
     8
176
     1
 40
1.0
176
     1
 90
        1
176
     1
 90
        6
176
     1
 90
        2
176
     1
 62
     7
176
     1
 90
        5
176
     1
 90
        0
176
     1
 90
        0
176
     1
290
     0
176
     1
 90
        1
176
     1
 40
0.0
176
     1
 90
        0
176
     1
290
     0
176
     1
290
     1
176
     1
290
     1
176
     1
290
     0
176
     1
290
     0
176
     1
290
     0
176
     1
290
     0
176
     1
290
     0
176
     1
290
     0
176
     1
 90
       50
176
     1
 40
0.0
176
     1
 40
1.0
176
     1
 90
        0
176
     1
 62
    18
420
        0
176
     1
 90
       50
176
     1
 90
        3
176
     1
 62
     5
420
      255
176
     1
290
     0
176
     1
 90
       50
176
     1
 90
       50
176
     1
 90
       50
176
     1
290
     0
176
     1
 90
       50
176
     1
 62
   256
176
     0
 40
1.0
176
     0
 90
        2
176
     1
  1
strokes_ogs.tif
176
     1
290
     0
176
     1
 40
1.0
176
     1
 40
1.0
176
     1
  0
VISUALSTYLE
  5
32
102
{ACAD_REACTORS
330
29
102
}
330
29
100
AcDbVisualStyle
  2
Conceptual
 70
     9
177
     3
291
     0
 70
    58
 90
        3
176
     1
 90
        2
176
     1
 90
        0
176
     1
 90
        0
176
     1
 40
0.6
176
     1
 40
30.0
176
     1
 62
     7
176
     1
 90
        2
176
     1
 90
        2
176
     1
 62
     7
176
     1
 62
   257
176
     1
 90
        1
176
     1
 90
        1
176
     1
 40
179.0
176
     1
 90
        8
176
     1
 62
     7
176
     1
 40
1.0
176
     1
 90
        1
176
     1
 90
        6
176
     1
 90
        2
176
     1
 62
     7
176
     1
 90
        3
176
     1
 90
        0
176
     1
 90
        0
176
     1
290
     0
176
     1
 90
        1
176
     1
 40
0.0
176
     1
 90
        0
176
     1
290
     0
176
     1
290
     1
176
     1
290
     1
176
     1
290
     0
176
     1
290
     0
176
     1
290
     0
176
     1
290
     0
176
     1
290
     0
176
     1
290
     0
176
     1
 90
       50
176
     1
 40
0.0
176
     1
 40
1.0
176
     1
 90
        0
176
     1
 62
    18
420
        0
176
     1
 90
       50
176
     1
 90
        3
176
     1
 62
     5
420
      255
176
     1
290
     0
176
     1
 90
       50
176
     1
 90
       50
176
     1
 90
       50
176
     1
290
     0
176
     1
 90
       50
176
     1
 62
   256
176
     0
 40
1.0
176
     0
 90
        2
176
     1
  1
strokes_ogs.tif
176
     1
290
     0
176
     1
 40
1.0
176
     1
 40
1.0
176
     1
  0
VISUALSTYLE
  5
34
102
{ACAD_REACTORS
330
29
102
}
330
29
100
AcDbVisualStyle
  2
Dim
 70
    11
177
     3
291
     1
 70
    58
 90
        2
176
     1
 90
        2
176
     1
 90
        0
176
     1
 90
        0
176
     1
 40
0.6
176
     1
 40
30.0
176
     1
 62
     7
176
     1
 90
        1
176
     1
 90
        4
176
     1
 62
     7
176
     1
 62
   257
176
     1
 90
        1
176
     1
 90
        1
176
     1
 40
1.0
176
     1
 90
        8
176
     1
 62
     7
176
     1
 40
1.0
176
     1
 90
        1
176
     1
 90
        6
176
     1
 90
        2
176
     1
 62
     7
176
     1
 90
        5
176
     1
 90
        0
176
     1
 90
        0
176
     1
290
     0
176
     1
 90
        1
176
     1
 40
-50.0
176
     1
 90
        0
176
     1
290
     0
176
     1
290
     1
176
     1
290
     1
176
     1
290
     0
176
     1
290
     0
176
     1
290
     0
176
     1
290
     0
176
     1
290
     0
176
     1
290
     0
176
     1
 90
       50
176
     1
 40
0.0
176
     1
 40
1.0
176
     1
 90
        0
176
     1
 62
    18
420
        0
176
     1
 90
       50
176
     1
 90
        3
176
     1
 62
     5
420
      255
176
     1
290
     0
176
     1
 90
       50
176
     1
 90
       50
176
     1
 90
       50
176
     1
290
     0
176
     1
 90
       50
176
     1
 62
   256
176
     0
 40
1.0
176
     0
 90
        2
176
     1
  1
strokes_ogs.tif
176
     1
290
     0
176
     1
 40
1.0
176
     1
 40
1.0
176
     1
  0
VISUALSTYLE
  5
41
102
{ACAD_REACTORS
330
29
102
}
330
29
100
AcDbVisualStyle
  2
EdgeColorOff
 70
    22
177
     3
291
     1
 70
    58
 90
        2
176
     0
 90
        2
176
     0
 90
        0
176
     0
 90
        0
176
     0
 40
0.6
176
     0
 40
30.0
176
     0
 62
     7
176
     0
 90
        1
176
     0
 90
        4
176
     0
 62
     7
176
     0
 62
   257
176
     0
 90
        1
176
     0
 90
        1
176
     0
 40
1.0
176
     0
 90
        8
176
     2
 62
     7
176
     0
 40
1.0
176
     0
 90
        1
176
     0
 90
        6
176
     0
 90
        2
176
     0
 62
     7
176
     0
 90
        5
176
     0
 90
        0
176
     0
 90
        0
176
     0
290
     0
176
     0
 90
        1
176
     0
 40
0.0
176
     0
 90
        0
176
     0
290
     0
176
     1
290
     1
176
     1
290
     1
176
     1
290
     0
176
     1
290
     0
176
     1
290
     0
176
     1
290
     0
176
     1
290
     0
176
     1
290
     0
176
     1
 90
       50
176
     1
 40
0.0
176
     1
 40
1.0
176
     1
 90
        0
176
     1
 62
    18
420
        0
176
     1
 90
       50
176
     1
 90
        3
176
     1
 62
     5
420
      255
176
     1
290
     0
176
     1
 90
       50
176
     1
 90
       50
176
     1
 90
       50
176
     1
290
     0
176
     1
 90
       50
176
     1
 62
   256
176
     0
 40
1.0
176
     0
 90
        2
176
     1
  1
strokes_ogs.tif
176
     1
290
     0
176
     1
 40
1.0
176
     1
 40
1.0
176
     1
  0
VISUALSTYLE
  5
38
102
{ACAD_REACTORS
330
29
102
}
330
29
100
AcDbVisualStyle
  2
Facepattern
 70
    15
177
     3
291
     1
 70
    58
 90
        2
176
     1
 90
        2
176
     1
 90
        0
176
     1
 90
        0
176
     1
 40
0.6
176
     1
 40
30.0
176
     1
 62
     7
176
     1
 90
        1
176
     1
 90
        4
176
     1
 62
     7
176
     1
 62
   257
176
     1
 90
        1
176
     1
 90
        1
176
     1
 40
1.0
176
     1
 90
        8
176
     1
 62
     7
176
     1
 40
1.0
176
     1
 90
        1
176
     1
 90
        6
176
     1
 90
        2
176
     1
 62
     7
176
     1
 90
        5
176
     1
 90
        0
176
     1
 90
        0
176
     1
290
     0
176
     1
 90
        1
176
     1
 40
0.0
176
     1
 90
        0
176
     1
290
     0
176
     1
290
     1
176
     1
290
     1
176
     1
290
     0
176
     1
290
     0
176
     1
290
     0
176
     1
290
     0
176
     1
290
     0
176
     1
290
     0
176
     1
 90
       50
176
     1
 40
0.0
176
     1
 40
1.0
176
     1
 90
        0
176
     1
 62
    18
420
        0
176
     1
 90
       50
176
     1
 90
        3
176
     1
 62
     5
420
      255
176
     1
290
     0
176
     1
 90
       50
176
     1
 90
       50
176
     1
 90
       50
176
     1
290
     0
176
     1
 90
       50
176
     1
 62
   256
176
     0
 40
1.0
176
     0
 90
        2
176
     1
  1
strokes_ogs.tif
176
     1
290
     0
176
     1
 40
1.0
176
     1
 40
1.0
176
     1
  0
VISUALSTYLE
  5
2A
102
{ACAD_REACTORS
330
29
102
}
330
29
100
AcDbVisualStyle
  2
Flat
 70
     0
177
     3
291
     1
 70
    58
 90
        2
176
     1
 90
        1
176
     1
 90
        1
176
     1
 90
        2
176
     1
 40
0.6
176
     1
 40
30.0
176
     1
 62
     7
176
     1
 90
        0
176
     1
 90
        0
176
     1
 62
     7
176
     1
 62
   257
176
     1
 90
        1
176
     1
 90
        1
176
     1
 40
1.0
176
     1
 90
        8
176
     1
 62
     7
176
     1
 40
1.0
176
     1
 90
        1
176
     1
 90
        6
176
     1
 90
        2
176
     1
 62
     7
176
     1
 90
        5
176
     1
 90
        0
176
     1
 90
        0
176
     1
290
     0
176
     1
 90
       13
176
     1
 40
0.0
176
     1
 90
        0
176
     1
290
     0
176
     1
290
     1
176
     1
290
     1
176
     1
290
     0
176
     1
290
     0
176
     1
290
     0
176
     1
290
     0
176
     1
290
     0
176
     1
290
     0
176
     1
 90
       50
176
     1
 40
0.0
176
     1
 40
1.0
176
     1
 90
        0
176
     1
 62
    18
420
        0
176
     1
 90
       50
176
     1
 90
        3
176
     1
 62
     5
420
      255
176
     1
290
     0
176
     1
 90
       50
176
     1
 90
       50
176
     1
 90
       50
176
     1
290
     0
176
     1
 90
       50
176
     1
 62
   256
176
     0
 40
1.0
176
     0
 90
        2
176
     1
  1
strokes_ogs.tif
176
     1
290
     0
176
     1
 40
1.0
176
     1
 40
1.0
176
     1
  0
VISUALSTYLE
  5
2B
102
{ACAD_REACTORS
330
29
102
}
330
29
100
AcDbVisualStyle
  2
FlatWithEdges
 70
     1
177
     3
291
     1
 70
    58
 90
        2
176
     1
 90
        1
176
     1
 90
        1
176
     1
 90
        2
176
     1
 40
0.6
176
     1
 40
30.0
176
     1
 62
     7
176
     1
 90
        1
176
     1
 90
        0
176
     1
 62
     7
176
     1
 62
   257
176
     1
 90
        1
176
     1
 90
        1
176
     1
 40
1.0
176
     1
 90
        0
176
     1
 62
   257
176
     1
 40
1.0
176
     1
 90
        1
176
     1
 90
        6
176
     1
 90
        2
176
     1
 62
     7
176
     1
 90
        5
176
     1
 90
        0
176
     1
 90
        0
176
     1
290
     0
176
     1
 90
       13
176
     1
 40
0.0
176
     1
 90
        0
176
     1
290
     0
176
     1
290
     1
176
     1
290
     1
176
     1
290
     0
176
     1
290
     0
176
     1
290
     0
176
     1
290
     0
176
     1
290
     0
176
     1
290
     0
176
     1
 90
       50
176
     1
 40
0.0
176
     1
 40
1.0
176
     1
 90
        0
176
     1
 62
    18
420
        0
176
     1
 90
       50
176
     1
 90
        3
176
     1
 62
     5
420
      255
176
     1
290
     0
176
     1
 90
       50
176
     1
 90
       50
176
     1
 90
       50
176
     1
290
     0
176
     1
 90
       50
176
     1
 62
   256
176
     0
 40
1.0
176
     0
 90
        2
176
     1
  1
strokes_ogs.tif
176
     1
290
     0
176
     1
 40
1.0
176
     1
 40
1.0
176
     1
  0
VISUALSTYLE
  5
2C
102
{ACAD_REACTORS
330
29
102
}
330
29
100
AcDbVisualStyle
  2
Gouraud
 70
     2
177
     3
291
     1
 70
    58
 90
        2
176
     1
 90
        2
176
     1
 90
        1
176
     1
 90
        2
176
     1
 40
0.6
176
     1
 40
30.0
176
     1
 62
     7
176
     1
 90
        0
176
     1
 90
        0
176
     1
 62
     7
176
     1
 62
   257
176
     1
 90
        1
176
     1
 90
        1
176
     1
 40
1.0
176
     1
 90
        0
176
     1
 62
     7
176
     1
 40
1.0
176
     1
 90
        1
176
     1
 90
        6
176
     1
 90
        2
176
     1
 62
     7
176
     1
 90
        5
176
     1
 90
        0
176
     1
 90
        0
176
     1
290
     0
176
     1
 90
       13
176
     1
 40
0.0
176
     1
 90
        0
176
     1
290
     0
176
     1
290
     1
176
     1
290
     1
176
     1
290
     0
176
     1
290
     0
176
     1
290
     0
176
     1
290
     0
176
     1
290
     0
176
     1
290
     0
176
     1
 90
       50
176
     1
 40
0.0
176
     1
 40
1.0
176
     1
 90
        0
176
     1
 62
    18
420
        0
176
     1
 90
       50
176
     1
 90
        3
176
     1
 62
     5
420
      255
176
     1
290
     0
176
     1
 90
       50
176
     1
 90
       50
176
     1
 90
       50
176
     1
290
     0
176
     1
 90
       50
176
     1
 62
   256
176
     0
 40
1.0
176
     0
 90
        2
176
     1
  1
strokes_ogs.tif
176
     1
290
     0
176
     1
 40
1.0
176
     1
 40
1.0
176
     1
  0
VISUALSTYLE
  5
2D
102
{ACAD_REACTORS
330
29
102
}
330
29
100
AcDbVisualStyle
  2
GouraudWithEdges
 70
     3
177
     3
291
     1
 70
    58
 90
        2
176
     1
 90
        2
176
     1
 90
        1
176
     1
 90
        2
176
     1
 40
0.6
176
     1
 40
30.0
176
     1
 62
     7
176
     1
 90
        1
176
     1
 90
        0
176
     1
 62
     7
176
     1
 62
   257
176
     1
 90
        1
176
     1
 90
        1
176
     1
 40
1.0
176
     1
 90
        0
176
     1
 62
   257
176
     1
 40
1.0
176
     1
 90
        1
176
     1
 90
        6
176
     1
 90
        2
176
     1
 62
     7
176
     1
 90
        5
176
     1
 90
        0
176
     1
 90
        0
176
     1
290
     0
176
     1
 90
       13
176
     1
 40
0.0
176
     1
 90
        0
176
     1
290
     0
176
     1
290
     1
176
     1
290
     1
176
     1
290
     0
176
     1
290
     0
176
     1
290
     0
176
     1
290
     0
176
     1
290
     0
176
     1
290
     0
176
     1
 90
       50
176
     1
 40
0.0
176
     1
 40
1.0
176
     1
 90
        0
176
     1
 62
    18
420
        0
176
     1
 90
       50
176
     1
 90
        3
176
     1
 62
     5
420
      255
176
     1
290
     0
176
     1
 90
       50
176
     1
 90
       50
176
     1
 90
       50
176
     1
290
     0
176
     1
 90
       50
176
     1
 62
   256
176
     0
 40
1.0
176
     0
 90
        2
176
     1
  1
strokes_ogs.tif
176
     1
290
     0
176
     1
 40
1.0
176
     1
 40
1.0
176
     1
  0
VISUALSTYLE
  5
31
102
{ACAD_REACTORS
330
29
102
}
330
29
100
AcDbVisualStyle
  2
Hidden
 70
     6
177
     3
291
     0
 70
    58
 90
        1
176
     1
 90
        2
176
     1
 90
        2
176
     1
 90
        0
176
     1
 40
0.6
176
     1
 40
30.0
176
     1
 62
     7
176
     1
 90
        2
176
     1
 90
        2
176
     1
 62
     7
176
     1
 62
   257
176
     1
 90
        2
176
     1
 90
        1
176
     1
 40
40.0
176
     1
 90
        0
176
     1
 62
   257
176
     1
 40
1.0
176
     1
 90
        1
176
     1
 90
        6
176
     1
 90
        2
176
     1
 62
     7
176
     1
 90
        3
176
     1
 90
        0
176
     1
 90
        0
176
     1
290
     0
176
     1
 90
        1
176
     1
 40
0.0
176
     1
 90
        0
176
     1
290
     0
176
     1
290
     1
176
     1
290
     1
176
     1
290
     0
176
     1
290
     0
176
     1
290
     0
176
     1
290
     0
176
     1
290
     0
176
     1
290
     0
176
     1
 90
       50
176
     1
 40
0.0
176
     1
 40
1.0
176
     1
 90
        0
176
     1
 62
    18
420
        0
176
     1
 90
       50
176
     1
 90
        3
176
     1
 62
     5
420
      255
176
     1
290
     0
176
     1
 90
       50
176
     1
 90
       50
176
     1
 90
       50
176
     1
290
     0
176
     1
 90
       50
176
     1
 62
   256
176
     0
 40
1.0
176
     0
 90
        2
176
     1
  1
strokes_ogs.tif
176
     1
290
     0
176
     1
 40
1.0
176
     1
 40
1.0
176
     1
  0
VISUALSTYLE
  5
3F
102
{ACAD_REACTORS
330
29
102
}
330
29
100
AcDbVisualStyle
  2
JitterOff
 70
    20
177
     3
291
     1
 70
    58
 90
        2
176
     0
 90
        2
176
     0
 90
        0
176
     0
 90
        0
176
     0
 40
0.6
176
     0
 40
30.0
176
     0
 62
     7
176
     0
 90
        1
176
     0
 90
        4
176
     0
 62
     7
176
     0
 62
   257
176
     0
 90
        1
176
     0
 90
        1
176
     0
 40
1.0
176
     0
 90
       10
176
     2
 62
     7
176
     0
 40
1.0
176
     0
 90
        1
176
     0
 90
        6
176
     0
 90
        2
176
     0
 62
     7
176
     0
 90
        5
176
     0
 90
        0
176
     0
 90
        0
176
     0
290
     0
176
     0
 90
        1
176
     0
 40
0.0
176
     0
 90
        0
176
     0
290
     0
176
     1
290
     1
176
     1
290
     1
176
     1
290
     0
176
     1
290
     0
176
     1
290
     0
176
     1
290
     0
176
     1
290
     0
176
     1
290
     0
176
     1
 90
       50
176
     1
 40
0.0
176
     1
 40
1.0
176
     1
 90
        0
176
     1
 62
    18
420
        0
176
     1
 90
       50
176
     1
 90
        3
176
     1
 62
     5
420
      255
176
     1
290
     0
176
     1
 90
       50
176
     1
 90
       50
176
     1
 90
       50
176
     1
290
     0
176
     1
 90
       50
176
     1
 62
   256
176
     0
 40
1.0
176
     0
 90
        2
176
     1
  1
strokes_ogs.tif
176
     1
290
     0
176
     1
 40
1.0
176
     1
 40
1.0
176
     1
  0
VISUALSTYLE
  5
37
102
{ACAD_REACTORS
330
29
102
}
330
29
100
AcDbVisualStyle
  2
Linepattern
 70
    14
177
     3
291
     1
 70
    58
 90
        2
176
     1
 90
        2
176
     1
 90
        0
176
     1
 90
        0
176
     1
 40
0.6
176
     1
 40
30.0
176
     1
 62
     7
176
     1
 90
        1
176
     1
 90
        4
176
     1
 62
     7
176
     1
 62
   257
176
     1
 90
        7
176
     1
 90
        7
176
     1
 40
1.0
176
     1
 90
        8
176
     1
 62
     7
176
     1
 40
1.0
176
     1
 90
        1
176
     1
 90
        6
176
     1
 90
        2
176
     1
 62
     7
176
     1
 90
        5
176
     1
 90
        0
176
     1
 90
        0
176
     1
290
     0
176
     1
 90
        1
176
     1
 40
0.0
176
     1
 90
        0
176
     1
290
     0
176
     1
290
     1
176
     1
290
     1
176
     1
290
     0
176
     1
290
     0
176
     1
290
     0
176
     1
290
     0
176
     1
290
     0
176
     1
290
     0
176
     1
 90
       50
176
     1
 40
0.0
176
     1
 40
1.0
176
     1
 90
        0
176
     1
 62
    18
420
        0
176
     1
 90
       50
176
     1
 90
        3
176
     1
 62
     5
420
      255
176
     1
290
     0
176
     1
 90
       50
176
     1
 90
       50
176
     1
 90
       50
176
     1
290
     0
176
     1
 90
       50
176
     1
 62
   256
176
     0
 40
1.0
176
     0
 90
        2
176
     1
  1
strokes_ogs.tif
176
     1
290
     0
176
     1
 40
1.0
176
     1
 40
1.0
176
     1
  0
VISUALSTYLE
  5
40
102
{ACAD_REACTORS
330
29
102
}
330
29
100
AcDbVisualStyle
  2
OverhangOff
 70
    21
177
     3
291
     1
 70
    58
 90
        2
176
     0
 90
        2
176
     0
 90
        0
176
     0
 90
        0
176
     0
 40
0.6
176
     0
 40
30.0
176
     0
 62
     7
176
     0
 90
        1
176
     0
 90
        4
176
     0
 62
     7
176
     0
 62
   257
176
     0
 90
        1
176
     0
 90
        1
176
     0
 40
1.0
176
     0
 90
        9
176
     2
 62
     7
176
     0
 40
1.0
176
     0
 90
        1
176
     0
 90
        6
176
     0
 90
        2
176
     0
 62
     7
176
     0
 90
        5
176
     0
 90
        0
176
     0
 90
        0
176
     0
290
     0
176
     0
 90
        1
176
     0
 40
0.0
176
     0
 90
        0
176
     0
290
     0
176
     1
290
     1
176
     1
290
     1
176
     1
290
     0
176
     1
290
     0
176
     1
290
     0
176
     1
290
     0
176
     1
290
     0
176
     1
290
     0
176
     1
 90
       50
176
     1
 40
0.0
176
     1
 40
1.0
176
     1
 90
        0
176
     1
 62
    18
420
        0
176
     1
 90
       50
176
     1
 90
        3
176
     1
 62
     5
420
      255
176
     1
290
     0
176
     1
 90
       50
176
     1
 90
       50
176
     1
 90
       50
176
     1
290
     0
176
     1
 90
       50
176
     1
 62
   256
176
     0
 40
1.0
176
     0
 90
        2
176
     1
  1
strokes_ogs.tif
176
     1
290
     0
176
     1
 40
1.0
176
     1
 40
1.0
176
     1
  0
VISUALSTYLE
  5
33
102
{ACAD_REACTORS
330
29
102
}
330
29
100
AcDbVisualStyle
  2
Realistic
 70
     8
177
     3
291
     0
 70
    58
 90
        2
176
     1
 90
        2
176
     1
 90
        0
176
     1
 90
        2
176
     1
 40
0.6
176
     1
 40
30.0
176
     1
 62
     7
176
     1
 90
        0
176
     1
 90
        0
176
     1
 62
     7
176
     1
 62
   257
176
     1
 90
        1
176
     1
 90
        1
176
     1
 40
1.0
176
     1
 90
        8
176
     1
 62
   257
176
     1
 40
1.0
176
     1
 90
        1
176
     1
 90
        6
176
     1
 90
        2
176
     1
 62
     7
176
     1
 90
        3
176
     1
 90
        0
176
     1
 90
        0
176
     1
290
     0
176
     1
 90
       13
176
     1
 40
0.0
176
     1
 90
        0
176
     1
290
     0
176
     1
290
     1
176
     1
290
     1
176
     1
290
     0
176
     1
290
     0
176
     1
290
     0
176
     1
290
     0
176
     1
290
     0
176
     1
290
     0
176
     1
 90
       50
176
     1
 40
0.0
176
     1
 40
1.0
176
     1
 90
        0
176
     1
 62
    18
420
        0
176
     1
 90
       50
176
     1
 90
        3
176
     1
 62
     5
420
      255
176
     1
290
     0
176
     1
 90
       50
176
     1
 90
       50
176
     1
 90
       50
176
     1
290
     0
176
     1
 90
       50
176
     1
 62
   256
176
     0
 40
1.0
176
     0
 90
        2
176
     1
  1
strokes_ogs.tif
176
     1
290
     0
176
     1
 40
1.0
176
     1
 40
1.0
176
     1
  0
VISUALSTYLE
  5
3E
102
{ACAD_REACTORS
330
29
102
}
330
29
100
AcDbVisualStyle
  2
Shaded
 70
    27
177
     3
291
     0
 70
    58
 90
        2
176
     1
 90
        2
176
     1
 90
        1
176
     1
 90
        2
176
     1
 40
0.6
176
     1
 40
30.0
176
     1
 62
     7
176
     1
 90
        0
176
     1
 90
        4
176
     1
 62
     7
176
     1
 62
   257
176
     1
 90
        1
176
     1
 90
        1
176
     1
 40
1.0
176
     1
 90
        8
176
     1
 62
   257
176
     1
 40
1.0
176
     1
 90
        1
176
     1
 90
        6
176
     1
 90
        2
176
     1
 62
     8
176
     1
 90
        3
176
     1
 90
        0
176
     1
 90
        0
176
     1
290
     0
176
     1
 90
        5
176
     1
 40
0.0
176
     1
 90
        0
176
     1
290
     0
176
     1
290
     1
176
     1
290
     1
176
     1
290
     0
176
     1
290
     0
176
     1
290
     0
176
     1
290
     0
176
     1
290
     0
176
     1
290
     0
176
     1
 90
       50
176
     1
 40
0.0
176
     1
 40
1.0
176
     1
 90
        0
176
     1
 62
    18
420
        0
176
     1
 90
       50
176
     1
 90
        3
176
     1
 62
     5
420
      255
176
     1
290
     0
176
     1
 90
       50
176
     1
 90
       50
176
     1
 90
       50
176
     1
290
     0
176
     1
 90
       50
176
     1
 62
   256
176
     0
 40
1.0
176
     0
 90
        2
176
     1
  1
strokes_ogs.tif
176
     1
290
     0
176
     1
 40
1.0
176
     1
 40
1.0
176
     1
  0
VISUALSTYLE
  5
3D
102
{ACAD_REACTORS
330
29
102
}
330
29
100
AcDbVisualStyle
  2
Shaded with edges
 70
    26
177
     3
291
     0
 70
    58
 90
        2
176
     1
 90
        2
176
     1
 90
        1
176
     1
 90
        2
176
     1
 40
0.6
176
     1
 40
30.0
176
     1
 62
     7
176
     1
 90
        1
176
     1
 90
        2
176
     1
 62
     7
176
     1
 62
   257
176
     1
 90
        2
176
     1
 90
        1
176
     1
 40
1.0
176
     1
 90
        8
176
     1
 62
   257
176
     1
 40
1.0
176
     1
 90
        1
176
     1
 90
        6
176
     1
 90
        2
176
     1
 62
     7
176
     1
 90
        3
176
     1
 90
        0
176
     1
 90
        0
176
     1
290
     0
176
     1
 90
        5
176
     1
 40
0.0
176
     1
 90
        0
176
     1
290
     0
176
     1
290
     1
176
     1
290
     1
176
     1
290
     0
176
     1
290
     0
176
     1
290
     0
176
     1
290
     0
176
     1
290
     0
176
     1
290
     0
176
     1
 90
       50
176
     1
 40
0.0
176
     1
 40
1.0
176
     1
 90
        0
176
     1
 62
    18
420
        0
176
     1
 90
       50
176
     1
 90
        3
176
     1
 62
     5
420
      255
176
     1
290
     0
176
     1
 90
       50
176
     1
 90
       50
176
     1
 90
       50
176
     1
290
     0
176
     1
 90
       50
176
     1
 62
   256
176
     0
 40
1.0
176
     0
 90
        2
176
     1
  1
strokes_ogs.tif
176
     1
290
     0
176
     1
 40
1.0
176
     1
 40
1.0
176
     1
  0
VISUALSTYLE
  5
3A
102
{ACAD_REACTORS
330
29
102
}
330
29
100
AcDbVisualStyle
  2
Shades of Gray
 70
    23
177
     3
291
     0
 70
    58
 90
        2
176
     1
 90
        2
176
     1
 90
        3
176
     1
 90
        0
176
     1
 40
0.6
176
     1
 40
30.0
176
     1
 62
     7
176
     1
 90
        2
176
     1
 90
        2
176
     1
 62
     7
176
     1
 62
     7
176
     1
 90
        1
176
     1
 90
        1
176
     1
 40
40.0
176
     1
 90
        8
176
     1
 62
     7
176
     1
 40
1.0
176
     1
 90
        1
176
     1
 90
        6
176
     1
 90
        2
176
     1
 62
     7
176
     1
 90
        3
176
     1
 90
        0
176
     1
 90
        0
176
     1
290
     0
176
     1
 90
        1
176
     1
 40
0.0
176
     1
 90
        0
176
     1
290
     0
176
     1
290
     1
176
     1
290
     1
176
     1
290
     0
176
     1
290
     0
176
     1
290
     0
176
     1
290
     0
176
     1
290
     0
176
     1
290
     0
176
     1
 90
       50
176
     1
 40
0.0
176
     1
 40
1.0
176
     1
 90
        0
176
     1
 62
    18
420
        0
176
     1
 90
       50
176
     1
 90
        3
176
     1
 62
     5
420
      255
176
     1
290
     0
176
     1
 90
       50
176
     1
 90
       50
176
     1
 90
       50
176
     1
290
     0
176
     1
 90
       50
176
     1
 62
   256
176
     0
 40
1.0
176
     0
 90
        2
176
     1
  1
strokes_ogs.tif
176
     1
290
     0
176
     1
 40
1.0
176
     1
 40
1.0
176
     1
  0
VISUALSTYLE
  5
3B
102
{ACAD_REACTORS
330
29
102
}
330
29
100
AcDbVisualStyle
  2
Sketchy
 70
    24
177
     3
291
     0
 70
    58
 90
        1
176
     1
 90
        2
176
     1
 90
        2
176
     1
 90
        0
176
     1
 40
0.6
176
     1
 40
30.0
176
     1
 62
     7
176
     1
 90
        2
176
     1
 90
        2
176
     1
 62
     7
176
     1
 62
     7
176
     1
 90
        1
176
     1
 90
        1
176
     1
 40
40.0
176
     1
 90
       11
176
     1
 62
     7
176
     1
 40
1.0
176
     1
 90
        1
176
     1
 90
        6
176
     1
 90
        2
176
     1
 62
     7
176
     1
 90
        6
176
     1
 90
        0
176
     1
 90
        0
176
     1
290
     0
176
     1
 90
        1
176
     1
 40
0.0
176
     1
 90
        0
176
     1
290
     0
176
     1
290
     1
176
     1
290
     1
176
     1
290
     0
176
     1
290
     0
176
     1
290
     0
176
     1
290
     0
176
     1
290
     0
176
     1
290
     0
176
     1
 90
       50
176
     1
 40
0.0
176
     1
 40
1.0
176
     1
 90
        0
176
     1
 62
    18
420
        0
176
     1
 90
       50
176
     1
 90
        3
176
     1
 62
     5
420
      255
176
     1
290
     0
176
     1
 90
       50
176
     1
 90
       50
176
     1
 90
       50
176
     1
290
     0
176
     1
 90
       50
176
     1
 62
   256
176
     0
 40
1.0
176
     0
 90
        2
176
     1
  1
strokes_ogs.tif
176
     1
290
     0
176
     1
 40
1.0
176
     1
 40
1.0
176
     1
  0
VISUALSTYLE
  5
36
102
{ACAD_REACTORS
330
29
102
}
330
29
100
AcDbVisualStyle
  2
Thicken
 70
    13
177
     3
291
     1
 70
    58
 90
        2
176
     1
 90
        2
176
     1
 90
        0
176
     1
 90
        0
176
     1
 40
0.6
176
     1
 40
30.0
176
     1
 62
     7
176
     1
 90
        1
176
     1
 90
        4
176
     1
 62
     7
176
     1
 62
   257
176
     1
 90
        1
176
     1
 90
        1
176
     1
 40
1.0
176
     1
 90
       12
176
     1
 62
     7
176
     1
 40
1.0
176
     1
 90
        1
176
     1
 90
        6
176
     1
 90
        2
176
     1
 62
     7
176
     1
 90
        5
176
     1
 90
        0
176
     1
 90
        0
176
     1
290
     0
176
     1
 90
        1
176
     1
 40
0.0
176
     1
 90
        0
176
     1
290
     0
176
     1
290
     1
176
     1
290
     1
176
     1
290
     0
176
     1
290
     0
176
     1
290
     0
176
     1
290
     0
176
     1
290
     0
176
     1
290
     0
176
     1
 90
       50
176
     1
 40
0.0
176
     1
 40
1.0
176
     1
 90
        0
176
     1
 62
    18
420
        0
176
     1
 90
       50
176
     1
 90
        3
176
     1
 62
     5
420
      255
176
     1
290
     0
176
     1
 90
       50
176
     1
 90
       50
176
     1
 90
       50
176
     1
290
     0
176
     1
 90
       50
176
     1
 62
   256
176
     0
 40
1.0
176
     0
 90
        2
176
     1
  1
strokes_ogs.tif
176
     1
290
     0
176
     1
 40
1.0
176
     1
 40
1.0
176
     1
  0
VISUALSTYLE
  5
30
102
{ACAD_REACTORS
330
29
102
}
330
29
100
AcDbVisualStyle
  2
Wireframe
 70
     5
177
     3
291
     0
 70
    58
 90
        0
176
     1
 90
        2
176
     1
 90
        0
176
     1
 90
        0
176
     1
 40
0.6
176
     1
 40
30.0
176
     1
 62
     7
176
     1
 90
        1
176
     1
 90
        4
176
     1
 62
     7
176
     1
 62
   257
176
     1
 90
        1
176
     1
 90
        1
176
     1
 40
1.0
176
     1
 90
        0
176
     1
 62
   257
176
     1
 40
1.0
176
     1
 90
        1
176
     1
 90
        6
176
     1
 90
        2
176
     1
 62
     7
176
     1
 90
        3
176
     1
 90
        0
176
     1
 90
        0
176
     1
290
     0
176
     1
 90
        1
176
     1
 40
0.0
176
     1
 90
        0
176
     1
290
     0
176
     1
290
     1
176
     1
290
     1
176
     1
290
     0
176
     1
290
     0
176
     1
290
     0
176
     1
290
     0
176
     1
290
     0
176
     1
290
     0
176
     1
 90
       50
176
     1
 40
0.0
176
     1
 40
1.0
176
     1
 90
        0
176
     1
 62
    18
420
        0
176
     1
 90
       50
176
     1
 90
        3
176
     1
 62
     5
420
      255
176
     1
290
     0
176
     1
 90
       50
176
     1
 90
       50
176
     1
 90
       50
176
     1
290
     0
176
     1
 90
       50
176
     1
 62
   256
176
     0
 40
1.0
176
     0
 90
        2
176
     1
  1
strokes_ogs.tif
176
     1
290
     0
176
     1
 40
1.0
176
     1
 40
1.0
176
     1
  0
VISUALSTYLE
  5
3C
102
{ACAD_REACTORS
330
29
102
}
330
29
100
AcDbVisualStyle
  2
X-Ray
 70
    25
177
     3
291
     0
 70
    58
 90
        2
176
     1
 90
        2
176
     1
 90
        1
176
     1
 90
        1
176
     1
 40
0.5
176
     1
 40
30.0
176
     1
 62
     7
176
     1
 90
        1
176
     1
 90
        0
176
     1
 62
     7
176
     1
 62
   257
176
     1
 90
        1
176
     1
 90
        1
176
     1
 40
1.0
176
     1
 90
        8
176
     1
 62
     7
176
     1
 40
1.0
176
     1
 90
        1
176
     1
 90
        6
176
     1
 90
        2
176
     1
 62
     7
176
     1
 90
        3
176
     1
 90
        0
176
     1
 90
        0
176
     1
290
     0
176
     1
 90
       13
176
     1
 40
0.0
176
     1
 90
        0
176
     1
290
     0
176
     1
290
     1
176
     1
290
     1
176
     1
290
     0
176
     1
290
     0
176
     1
290
     0
176
     1
290
     0
176
     1
290
     0
176
     1
290
     0
176
     1
 90
       50
176
     1
 40
0.0
176
     1
 40
1.0
176
     1
 90
        0
176
     1
 62
    18
420
        0
176
     1
 90
       50
176
     1
 90
        3
176
     1
 62
     5
420
      255
176
     1
290
     0
176
     1
 90
       50
176
     1
 90
       50
176
     1
 90
       50
176
     1
290
     0
176
     1
 90
       50
176
     1
 62
   256
176
     0
 40
1.0
176
     0
 90
        2
176
     1
  1
strokes_ogs.tif
176
     1
290
     0
176
     1
 40
1.0
176
     1
 40
1.0
176
     1
  0
DICTIONARYVAR
  5
237D
102
{ACAD_REACTORS
330
2379
102
}
330
2379
100
DictionaryVariables
280
     0
  1
1:1
  0
DICTIONARYVAR
  5
237B
102
{ACAD_REACTORS
330
2379
102
}
330
2379
100
DictionaryVariables
280
     0
  1
STANDARD
  0
DICTIONARYVAR
  5
237A
102
{ACAD_REACTORS
330
2379
102
}
330
2379
100
DictionaryVariables
280
     0
  1
STANDARD
  0
DICTIONARYVAR
  5
114B3
102
{ACAD_REACTORS
330
2379
102
}
330
2379
100
DictionaryVariables
280
     0
  1
Imperial24
  0
DICTIONARYVAR
  5
114B4
102
{ACAD_REACTORS
330
2379
102
}
330
2379
100
DictionaryVariables
280
     0
  1
Imperial24
  0
DICTIONARYVAR
  5
2384
102
{ACAD_REACTORS
330
2379
102
}
330
2379
100
DictionaryVariables
280
     0
  1
2
  0
DICTIONARYVAR
  5
2383
102
{ACAD_REACTORS
330
2379
102
}
330
2379
100
DictionaryVariables
280
     0
  1
1
  0
DICTIONARYVAR
  5
2382
102
{ACAD_REACTORS
330
2379
102
}
330
2379
100
DictionaryVariables
280
     0
  1
0
  0
DICTIONARYVAR
  5
237F
102
{ACAD_REACTORS
330
2379
102
}
330
2379
100
DictionaryVariables
280
     0
  1
0
  0
DICTIONARYVAR
  5
2380
102
{ACAD_REACTORS
330
2379
102
}
330
2379
100
DictionaryVariables
280
     0
  1
0
  0
DICTIONARYVAR
  5
237E
102
{ACAD_REACTORS
330
2379
102
}
330
2379
100
DictionaryVariables
280
     0
  1
2
  0
DICTIONARYVAR
  5
237C
102
{ACAD_REACTORS
330
2379
102
}
330
2379
100
DictionaryVariables
280
     0
  1
1
  0
DICTIONARYVAR
  5
2381
102
{ACAD_REACTORS
330
2379
102
}
330
2379
100
DictionaryVariables
280
     0
  1
127
  0
DICTIONARY
  5
6327
330
6F
100
AcDbDictionary
280
     1
281
     1
  0
DICTIONARY
  5
1A
330
19
100
AcDbDictionary
280
     1
281
     1
  3
BUMPTILE
360
1C
  3
DIFFUSETILE
360
1B
  3
OPACITYTILE
360
1F
  3
REFLECTIONTILE
360
1E
  3
REFRACTIONTILE
360
20
  3
SPECULARTILE
360
1D
  0
DICTIONARY
  5
12
330
11
100
AcDbDictionary
280
     1
281
     1
  3
BUMPTILE
360
14
  3
DIFFUSETILE
360
13
  3
OPACITYTILE
360
17
  3
REFLECTIONTILE
360
16
  3
REFRACTIONTILE
360
18
  3
SPECULARTILE
360
15
  0
DICTIONARY
  5
22
330
21
100
AcDbDictionary
280
     1
281
     1
  3
BUMPTILE
360
24
  3
DIFFUSETILE
360
23
  3
OPACITYTILE
360
27
  3
REFLECTIONTILE
360
26
  3
REFRACTIONTILE
360
28
  3
SPECULARTILE
360
25
  0
DICTIONARY
  5
231A
330
65
100
AcDbDictionary
280
     1
281
     1
  3
ACAD_ROUNDTRIP_2008_TABLESTYLE_CELLSTYLEMAP
360
116D0
  0
XRECORD
  5
1C
102
{ACAD_REACTORS
330
1A
102
}
330
1A
100
AcDbXrecord
280
     1
270
     1
271
     1
  0
XRECORD
  5
1B
102
{ACAD_REACTORS
330
1A
102
}
330
1A
100
AcDbXrecord
280
     1
270
     1
271
     1
  0
XRECORD
  5
1F
102
{ACAD_REACTORS
330
1A
102
}
330
1A
100
AcDbXrecord
280
     1
270
     1
271
     1
  0
XRECORD
  5
1E
102
{ACAD_REACTORS
330
1A
102
}
330
1A
100
AcDbXrecord
280
     1
270
     1
271
     1
  0
XRECORD
  5
20
102
{ACAD_REACTORS
330
1A
102
}
330
1A
100
AcDbXrecord
280
     1
270
     1
271
     1
  0
XRECORD
  5
1D
102
{ACAD_REACTORS
330
1A
102
}
330
1A
100
AcDbXrecord
280
     1
270
     1
271
     1
  0
XRECORD
  5
14
102
{ACAD_REACTORS
330
12
102
}
330
12
100
AcDbXrecord
280
     1
270
     1
271
     1
  0
XRECORD
  5
13
102
{ACAD_REACTORS
330
12
102
}
330
12
100
AcDbXrecord
280
     1
270
     1
271
     1
  0
XRECORD
  5
17
102
{ACAD_REACTORS
330
12
102
}
330
12
100
AcDbXrecord
280
     1
270
     1
271
     1
  0
XRECORD
  5
16
102
{ACAD_REACTORS
330
12
102
}
330
12
100
AcDbXrecord
280
     1
270
     1
271
     1
  0
XRECORD
  5
18
102
{ACAD_REACTORS
330
12
102
}
330
12
100
AcDbXrecord
280
     1
270
     1
271
     1
  0
XRECORD
  5
15
102
{ACAD_REACTORS
330
12
102
}
330
12
100
AcDbXrecord
280
     1
270
     1
271
     1
  0
XRECORD
  5
24
102
{ACAD_REACTORS
330
22
102
}
330
22
100
AcDbXrecord
280
     1
270
     1
271
     1
  0
XRECORD
  5
23
102
{ACAD_REACTORS
330
22
102
}
330
22
100
AcDbXrecord
280
     1
270
     1
271
     1
  0
XRECORD
  5
27
102
{ACAD_REACTORS
330
22
102
}
330
22
100
AcDbXrecord
280
     1
270
     1
271
     1
  0
XRECORD
  5
26
102
{ACAD_REACTORS
330
22
102
}
330
22
100
AcDbXrecord
280
     1
270
     1
271
     1
  0
XRECORD
  5
28
102
{ACAD_REACTORS
330
22
102
}
330
22
100
AcDbXrecord
280
     1
270
     1
271
     1
  0
XRECORD
  5
25
102
{ACAD_REACTORS
330
22
102
}
330
22
100
AcDbXrecord
280
     1
270
     1
271
     1
  0
CELLSTYLEMAP
  5
116D0
102
{ACAD_REACTORS
330
231A
102
}
330
231A
100
AcDbCellStyleMap
 90
        3
300
CELLSTYLE
  1
TABLEFORMAT_BEGIN
 90
        5
170
     1
 91
        0
 92
    32768
 62
   257
 93
        1
300
CONTENTFORMAT
  1
CONTENTFORMAT_BEGIN
 90
        0
 91
        0
 92
      512
 93
        0
300

 40
0.0
140
1.0
 94
        5
 62
     0
340
55
144
0.25
309
CONTENTFORMAT_END
171
     0
 94
        0
309
TABLEFORMAT_END
  1
CELLSTYLE_BEGIN
 90
        1
 91
        1
300
_TITLE
309
CELLSTYLE_END
300
CELLSTYLE
  1
TABLEFORMAT_BEGIN
 90
        5
170
     1
 91
        0
 92
        0
 62
   257
 93
        1
300
CONTENTFORMAT
  1
CONTENTFORMAT_BEGIN
 90
        0
 91
        0
 92
      512
 93
        0
300

 40
0.0
140
1.0
 94
        5
 62
     0
340
55
144
0.18
309
CONTENTFORMAT_END
171
     0
 94
        0
309
TABLEFORMAT_END
  1
CELLSTYLE_BEGIN
 90
        2
 91
        1
300
_HEADER
309
CELLSTYLE_END
300
CELLSTYLE
  1
TABLEFORMAT_BEGIN
 90
        5
170
     1
 91
        0
 92
        0
 62
   257
 93
        1
300
CONTENTFORMAT
  1
CONTENTFORMAT_BEGIN
 90
        0
 91
        0
 92
      512
 93
        0
300

 40
0.0
140
1.0
 94
        2
 62
     0
340
55
144
0.18
309
CONTENTFORMAT_END
171
     0
 94
        0
309
TABLEFORMAT_END
  1
CELLSTYLE_BEGIN
 90
        3
 91
        2
300
_DATA
309
CELLSTYLE_END
  0
ENDSEC
  0
SECTION
  2
ACDSDATA
 70
     2
 71
     8
  0
ACDSSCHEMA
 90
        0
  1
AcDb_Thumbnail_Schema
  2
AcDbDs::ID
280
    10
 91
        8
  2
Thumbnail_Data
280
    15
 91
        0
101
ACDSRECORD
 95
        0
 90
        1
  2
AcDbDs::TreatedAsObjectData
280
     1
291
     1
101
ACDSRECORD
 95
        0
 90
        2
  2
AcDbDs::Legacy
280
     1
291
     1
101
ACDSRECORD
  1
AcDbDs::ID
 90
        3
  2
AcDs:Indexable
280
     1
291
     1
101
ACDSRECORD
  1
AcDbDs::ID
 90
        4
  2
AcDbDs::HandleAttribute
280
     7
282
     1
  0
ACDSSCHEMA
 90
        1
  1
AcDbDs::TreatedAsObjectDataSchema
  2
AcDbDs::TreatedAsObjectData
280
     1
 91
        0
  0
ACDSSCHEMA
 90
        2
  1
AcDbDs::LegacySchema
  2
AcDbDs::Legacy
280
     1
 91
        0
  0
ACDSSCHEMA
 90
        3
  1
AcDbDs::IndexedPropertySchema
  2
AcDs:Indexable
280
     1
 91
        0
  0
ACDSSCHEMA
 90
        4
  1
AcDbDs::HandleAttributeSchema
  2
AcDbDs::HandleAttribute
280
     7
 91
        1
284
     1
  0
ACDSRECORD
 90
        0
  2
AcDbDs::ID
280
    10
320
6F
  2
Thumbnail_Data
280
    15
 94
     1671
310
89504E470D0A1A0A0000000D49484452000001000000007A080300000067627D4700000300504C5445000000000000C8C8C80000000000000000000000000000000000000000000000000000330000660000990000CC0000FF0033000033330033660033990033CC0033FF0066000066330066660066990066CC0066FF0099
310
000099330099660099990099CC0099FF00CC0000CC3300CC6600CC9900CCCC00CCFF00FF0000FF3300FF6600FF9900FFCC00FFFF3300003300333300663300993300CC3300FF3333003333333333663333993333CC3333FF3366003366333366663366993366CC3366FF3399003399333399663399993399CC3399FF33CC00
310
33CC3333CC6633CC9933CCCC33CCFF33FF0033FF3333FF6633FF9933FFCC33FFFF6600006600336600666600996600CC6600FF6633006633336633666633996633CC6633FF6666006666336666666666996666CC6666FF6699006699336699666699996699CC6699FF66CC0066CC3366CC6666CC9966CCCC66CCFF66FF0066
310
FF3366FF6666FF9966FFCC66FFFF9900009900339900669900999900CC9900FF9933009933339933669933999933CC9933FF9966009966339966669966999966CC9966FF9999009999339999669999999999CC9999FF99CC0099CC3399CC6699CC9999CCCC99CCFF99FF0099FF3399FF6699FF9999FFCC99FFFFCC0000CC00
310
33CC0066CC0099CC00CCCC00FFCC3300CC3333CC3366CC3399CC33CCCC33FFCC6600CC6633CC6666CC6699CC66CCCC66FFCC9900CC9933CC9966CC9999CC99CCCC99FFCCCC00CCCC33CCCC66CCCC99CCCCCCCCCCFFCCFF00CCFF33CCFF66CCFF99CCFFCCCCFFFFFF0000FF0033FF0066FF0099FF00CCFF00FFFF3300FF3333
310
FF3366FF3399FF33CCFF33FFFF6600FF6633FF6666FF6699FF66CCFF66FFFF9900FF9933FF9966FF9999FF99CCFF99FFFFCC00FFCC33FFCC66FFCC99FFCCCCFFCCFFFFFF00FFFF33FFFF66FFFF99FFFFCCFFFFFF0000000D0D0D1A1A1A2828283535354343435050505D5D5D6B6B6B787878868686939393A1A1A1AEAEAEBB
310
BBBBC9C9C9D6D6D6E4E4E4F1F1F1FFFFFF00000000000000000000000000000000000000000000000000000000000008F1915C000003424944415478DAED9D4B722B210C45B51C4DB4FF9957C23698BF34FF769A4FFB75CA082EE54AEC14E558878B50C3B54DD46996366F0000000000000000000000000000000000000000
310
0000101B9FDA7E00CCC5BDBD00BCB78D15F037007829007713C64F9FC901486E3FB19B00A2F614F2ABB5FEA138006702321F008A71087D00A0261AF7F74C698CD81C004C1B4031961206D4546696C45EB93FA90790235806C09B9CEB8930E43D594F01E165B515E0A2972286051550C8A03E05521039A955019CD2DEBC4930
310
0E70C8D7ADA238F4961C108D03A0F9007851C7B92DF21A04E0C5AC1E80AFE684F3EBA33680A2FA930F00CC3D05847A00B8D00B1FBC5E4349F09500BC665D05E2CF7656FBB01234B112E4747F4200A7B42EA3008E6ED2AA9B4CC992DF1ECF044068605D3BE9C5D58FF1CAA11994292E8ABFBDD5603BC5EDDD2990CAC6AA0292
310
3AF8EDF15C8510D1FF29A01FD4245B8D9565B09CD56375C09D2930F796985BD8EE95C2B9DF980266DA721E3B1768AF53267531FAB6919F3818F9600B759E2307DB97E95F0050A0801B63A4FA140167830F3D8FDA7344000000E4000000000000000000000000000000000000000000000008AD34FFF58EAF359BEBED653C14
310
CC2BE4CF09653B05A4D10C07A32312A0EF1A1D9E9E022E6C4EAEDE81F0F9DB6E9F470114EE9811091CBD7802CBD71300D8B9F9FDB0FBF9EF8FBD3BE1074AA20EC1E5F138717406487F58CF32116D086C2D288E08BCF141A8B55E66CBEF80609400381014AA6E49E0EAA61D40486B0900B501449778187DF500A2AA9947545D
310
401A5A35150030E40C9C212316DE9F761A147D29B05E089918934B86A65B058454B90600630A63377BF753CBF7515AEAD45542F62AFEE47389D1749C2F072766E9AE986A00B877091A13C510BCAFA67A29E0D68BC322ED3DE0FAAF050ABB53FE55BB0E0A12081AD17F2D708640ADE8D3DE8137C85320B00880A07F1A73BD19
310
D2FA367BDB0E8B682CA8568E500C60BCE9FD8C05DBDCE759FF23444600D0A600EE3518256194DC7C0A0000000000000000000000000000000000000000000000000000000000002C0760C953127B23F86D01302FFC750307006BB70660CF0D009A325872158841B70160195C16005FB75A1AD80100A6C0560094B75E7CFF00
310
44062FA12B025C0E0000000049454E44AE426082
  0
ENDSEC
  0
EOF
